<?xml version="1.0" standalone="no"?>
<!DOCTYPE svg PUBLIC "-//W3C//DTD SVG 1.1//EN" "http://www.w3.org/Graphics/SVG/1.1/DTD/svg11.dtd" >
<svg xmlns="http://www.w3.org/2000/svg" xmlns:xlink="http://www.w3.org/1999/xlink" version="1.1">
<metadata>
Created by FontForge 20170731 at Thu Dec 29 19:39:06 2022
 By Aleksey,,,
Copyright (c) 2018-2019 by TypeType. Designers Ivan Gladkikh, Pavel Emelyanov. Technical designers Marina Khodak, Vika Usmanova, Nadyr Rakhimov, Antonina Zhulkova. All rights reserved. |DCNT
</metadata>
<defs>
<font id="TTCommons-Regular" horiz-adv-x="1044" >
  <font-face 
    font-family="TT Commons"
    font-weight="400"
    font-stretch="normal"
    units-per-em="2048"
    panose-1="2 0 5 6 4 0 0 2 0 4"
    ascent="1616"
    descent="-432"
    x-height="922"
    cap-height="1290"
    bbox="-799 -522 2945 1915"
    underline-thickness="102"
    underline-position="-307"
    unicode-range="U+000D-FB06"
  />
<missing-glyph horiz-adv-x="0" 
 />
    <glyph glyph-name="ff" unicode="ff" horiz-adv-x="1085" 
d="M164 0v778h-113v144h113v30q0 134 78.5 221t187.5 87q41 0 70 -11l22 -10v-133l-14 4q-24 6 -37 6q-70 0 -112 -43.5t-42 -120.5v-30h369v71q0 134 78.5 220.5t187.5 86.5q43 0 70 -10l22 -10v-133l-14 4q-24 6 -37 6q-70 0 -111.5 -43.5t-41.5 -120.5v-71h204v-144h-204
v-778h-154v778h-369v-778h-153z" />
    <glyph glyph-name="uniFB01" unicode="fi" horiz-adv-x="972" 
d="M164 0v778h-113v144h113v71q0 134 78.5 220.5t187.5 86.5q43 0 70 -10l22 -10v-133l-14 4q-24 6 -37 6q-70 0 -112 -43.5t-42 -120.5v-71h523v-922h-154v778h-369v-778h-153zM666 1182q0 43 27.5 70.5t68.5 27.5q43 0 70.5 -27.5t27.5 -70.5q0 -42 -28 -69.5t-70 -27.5
q-41 0 -68.5 28t-27.5 69z" />
    <glyph glyph-name="uniFB02" unicode="fl" horiz-adv-x="993" 
d="M164 0v778h-113v144h113v41q0 149 104.5 248.5t263.5 99.5q55 0 121 -17l43 -14h154v-1280h-154v1126q-17 11 -43 21q-62 20 -121 20q-99 0 -157 -55.5t-58 -148.5v-41h205v-144h-205v-778h-153z" />
    <glyph glyph-name="ffi" unicode="ffi" horiz-adv-x="1495" 
d="M164 0v778h-113v144h113v30q0 134 78.5 221t187.5 87q41 0 70 -11l22 -10v-133l-14 4q-24 6 -37 6q-70 0 -112 -43.5t-42 -120.5v-30h369v71q0 134 78.5 220.5t187.5 86.5q43 0 70 -10l22 -10v-133l-14 4q-24 6 -37 6q-70 0 -111.5 -43.5t-41.5 -120.5v-71h522v-922h-154
v778h-368v-778h-154v778h-369v-778h-153zM1188 1182q0 43 27.5 70.5t68.5 27.5q43 0 70.5 -27.5t27.5 -70.5q0 -42 -28 -69.5t-70 -27.5q-41 0 -68.5 28t-27.5 69z" />
    <glyph glyph-name="ffl" unicode="ffl" horiz-adv-x="1515" 
d="M164 0v778h-113v144h113v30q0 134 78.5 221t187.5 87q41 0 70 -11l22 -10v-133l-14 4q-24 6 -37 6q-70 0 -112 -43.5t-42 -120.5v-30h369v41q0 148 105 248t264 100q55 0 121 -17l43 -14h153v-1280h-153v1126q-17 11 -43 21q-62 20 -121 20q-99 0 -157 -55.5t-58 -148.5
v-41h204v-144h-204v-778h-154v778h-369v-778h-153z" />
    <glyph glyph-name="f_f_j" unicode="ffj" horiz-adv-x="1495" 
d="M164 0v778h-113v144h113v30q0 134 78.5 221t187.5 87q41 0 70 -11l22 -10v-133l-14 4q-24 6 -37 6q-70 0 -112 -43.5t-42 -120.5v-30h369v71q0 134 78.5 220.5t187.5 86.5q43 0 70 -10l22 -10v-133l-14 4q-24 6 -37 6q-70 0 -111.5 -43.5t-41.5 -120.5v-71h522v-953
q0 -134 -78.5 -220.5t-187.5 -86.5q-43 0 -70 10q-8 2 -22 11v133l14 -6q25 -5 37 -5q70 0 111.5 43.5t41.5 120.5v809h-368v-778h-154v778h-369v-778h-153zM1188 1182q0 43 27.5 70.5t68.5 27.5q43 0 70.5 -27.5t27.5 -70.5q0 -42 -28 -69.5t-70 -27.5q-41 0 -68.5 28
t-27.5 69z" />
    <glyph glyph-name="f_j" unicode="fj" horiz-adv-x="972" 
d="M481 -317v133l15 -6q25 -5 36 -5q70 0 112 43.5t42 120.5v809h-369v-778h-153v778h-113v144h113v30q0 134 78.5 221t187.5 87q41 0 70 -11l22 -10v-133l-14 4q-24 6 -37 6q-70 0 -112 -43.5t-42 -120.5v-30h523v-953q0 -134 -79 -220.5t-188 -86.5q-42 0 -69 10
q-9 2 -23 11zM666 1182q0 43 27.5 70.5t68.5 27.5q43 0 70.5 -27.5t27.5 -70.5q0 -42 -28 -69.5t-70 -27.5q-41 0 -68.5 28t-27.5 69z" />
    <glyph glyph-name=".notdef" horiz-adv-x="0" 
 />
    <glyph glyph-name=".null" horiz-adv-x="0" 
 />
    <glyph glyph-name="nonmarkingreturn" horiz-adv-x="682" 
 />
    <glyph glyph-name="NULL" horiz-adv-x="0" 
 />
    <glyph glyph-name="NULL" horiz-adv-x="0" 
 />
    <glyph glyph-name="CR" unicode="&#xd;" horiz-adv-x="0" 
 />
    <glyph glyph-name="space" unicode=" " horiz-adv-x="440" 
 />
    <glyph glyph-name="exclam" unicode="!" horiz-adv-x="532" 
d="M205 307l-41 983h205l-41 -983h-123zM164 92q0 47 27.5 75t74.5 28t75 -28t28 -75t-28 -74.5t-75 -27.5t-74.5 27.5t-27.5 74.5z" />
    <glyph glyph-name="quotedbl" unicode="&#x22;" horiz-adv-x="624" 
d="M102 911v379h144v-379h-144zM379 911v379h143v-379h-143z" />
    <glyph glyph-name="numbersign" unicode="#" horiz-adv-x="1228" 
d="M215 0l72 369h-246l31 123h235l62 307h-246l31 123h235l72 368h123l-72 -368h307l72 368h123l-72 -368h246l-31 -123h-235l-62 -307h246l-31 -123h-235l-72 -369h-123l72 369h-307l-72 -369h-123zM430 492h307l62 307h-307z" />
    <glyph glyph-name="dollar" unicode="$" horiz-adv-x="1013" 
d="M440 -184v178q-166 20 -262 125t-96 260h164q0 -118 68 -182t198 -64q126 0 196 57.5t70 147.5q0 64 -38 109t-98.5 71.5t-133.5 48.5t-146 50t-133.5 66.5t-98.5 106.5t-38 162q0 121 98 221.5t250 120.5v181h144v-181q142 -25 234.5 -132t92.5 -251h-163
q0 108 -67.5 177t-168.5 69q-111 0 -183.5 -62t-72.5 -143q0 -64 38 -109t98.5 -71.5t133.5 -48.5t146 -50t133.5 -66.5t98.5 -106.5t38 -162q0 -130 -97.5 -227t-260.5 -117v-178h-144z" />
    <glyph glyph-name="percent" unicode="%" horiz-adv-x="1228" 
d="M164 0l788 1290h113l-789 -1290h-112zM317 870q62 0 108 48t46 116t-46 116t-108 48t-107.5 -48t-45.5 -116t45.5 -116t107.5 -48zM61 1034q0 107 74.5 181.5t181.5 74.5t181.5 -74.5t74.5 -181.5t-74.5 -181.5t-181.5 -74.5t-181.5 74.5t-74.5 181.5zM911 92
q62 0 108 48t46 116t-46 116t-108 48t-107.5 -48t-45.5 -116t45.5 -116t107.5 -48zM655 256q0 107 74.5 181.5t181.5 74.5t181.5 -74.5t74.5 -181.5t-74.5 -181.5t-181.5 -74.5t-181.5 74.5t-74.5 181.5z" />
    <glyph glyph-name="ampersand" unicode="&#x26;" horiz-adv-x="1085" 
d="M952 0l-174 174q-36 -50 -90 -92q-115 -92 -258 -92q-151 0 -244.5 87t-93.5 220q0 135 113 260q50 56 112 98l-92 103q-36 36 -51 63q-51 77 -51 172q0 116 92.5 206.5t214.5 90.5q123 0 210 -87t87 -210q0 -85 -68 -182q-24 -37 -65 -74l-90 -82l264 -266l123 205h174
l-195 -307l277 -287h-195zM348 819l72 -71l82 71q25 25 41 49q41 55 41 125q0 63 -43.5 108.5t-110.5 45.5q-68 0 -116 -46t-48 -108t41 -121q17 -26 41 -53zM696 266l-276 287q-49 -28 -88 -70q-86 -94 -86 -186q0 -72 50.5 -123t133.5 -51q101 0 188 72q39 29 78 71z" />
    <glyph glyph-name="quotesingle" unicode="'" horiz-adv-x="348" 
d="M102 911v379h144v-379h-144z" />
    <glyph glyph-name="parenleft" unicode="(" horiz-adv-x="542" 
d="M502 -328l-103 -71q-75 102 -143 241q-143 306 -143 619q0 312 143 618q69 142 143 242l103 -72q-70 -111 -123 -237q-123 -287 -123 -551t123 -551q54 -129 123 -238z" />
    <glyph glyph-name="parenright" unicode=")" horiz-adv-x="542" 
d="M143 -399l-102 71q69 109 123 238q123 287 123 551t-123 551q-52 126 -123 237l102 72q77 -104 144 -242q143 -306 143 -618q0 -313 -143 -619q-66 -135 -144 -241z" />
    <glyph glyph-name="asterisk" unicode="*" horiz-adv-x="675" 
d="M123 799l143 174l-215 51l41 113l195 -72l-11 225h123l-10 -225l195 72l41 -113l-215 -51l143 -174l-113 -72l-102 186l-102 -186z" />
    <glyph glyph-name="plus" unicode="+" horiz-adv-x="901" 
d="M379 123v338h-318v133h318v338h143v-338h318v-133h-318v-338h-143z" />
    <glyph glyph-name="comma" unicode="," horiz-adv-x="348" 
d="M113 -195l-21 31q22 22 37 43q38 57 45 111q-47 0 -74.5 27.5t-27.5 74.5t27.5 75t74.5 28t74.5 -28t27.5 -75q0 -124 -81 -217q-45 -48 -82 -70z" />
    <glyph glyph-name="hyphen" unicode="-" horiz-adv-x="706" 
d="M72 451v143h563v-143h-563z" />
    <glyph glyph-name="period" unicode="." horiz-adv-x="348" 
d="M72 92q0 47 27.5 75t74.5 28t74.5 -28t27.5 -75t-27.5 -74.5t-74.5 -27.5t-74.5 27.5t-27.5 74.5z" />
    <glyph glyph-name="slash" unicode="/" horiz-adv-x="675" 
d="M0 -369l532 1659h144l-533 -1659h-143z" />
    <glyph glyph-name="zero" unicode="0" horiz-adv-x="1146" 
d="M573 133q66 0 125.5 31.5t107.5 92.5t76.5 161t28.5 227t-28.5 227t-76.5 161t-107.5 92.5t-125.5 31.5t-125.5 -31.5t-107.5 -92.5t-76 -161t-28 -227t28 -227t76 -161t107.5 -92.5t125.5 -31.5zM573 -10q-101 0 -191.5 44t-159.5 125t-109.5 207t-40.5 279t40.5 279
t109.5 207t159.5 125t191.5 44t191 -44t159.5 -125t110.5 -207t41 -279t-41 -279t-110.5 -207t-159.5 -125t-191 -44z" />
    <glyph glyph-name="one" unicode="1" horiz-adv-x="634" 
d="M307 0v1065l-184 -123l-72 123l318 225h102v-1290h-164z" />
    <glyph glyph-name="two" unicode="2" horiz-adv-x="983" 
d="M92 0v123l512 563q36 39 62 78q61 92 61 178q0 94 -64 154.5t-171 60.5q-109 0 -177.5 -68.5t-68.5 -177.5h-164q0 163 117.5 276t292.5 113q174 0 286.5 -104.5t112.5 -253.5q0 -115 -88 -244q-37 -56 -86 -104l-410 -451h584v-143h-799z" />
    <glyph glyph-name="three" unicode="3" horiz-adv-x="993" 
d="M61 328h164q18 -83 85.5 -139t170.5 -56q120 0 193.5 65t73.5 160q0 96 -73.5 161t-193.5 65h-71v143h61q107 0 171.5 60.5t64.5 154.5t-64.5 154.5t-171.5 60.5q-96 0 -161.5 -57t-73.5 -137h-164q18 144 126.5 240.5t272.5 96.5q174 0 286.5 -104.5t112.5 -253.5
q0 -119 -92 -203q-38 -35 -92 -63q61 -27 113 -70q112 -100 112 -248q0 -151 -121.5 -259.5t-308.5 -108.5q-172 0 -283 96t-137 242z" />
    <glyph glyph-name="four" unicode="4" horiz-adv-x="983" 
d="M41 276v134l543 880h194v-870h144v-144h-144v-276h-164v276h-573zM225 420h389v635z" />
    <glyph glyph-name="five" unicode="5" horiz-adv-x="1024" 
d="M92 328h164q18 -83 85.5 -139t170.5 -56q116 0 191 79t75 208t-74 208t-192 79q-115 0 -193 -78q-35 -35 -53 -76h-143l82 737h655v-153h-512l-41 -369q27 24 60 41q70 41 165 41q169 0 289.5 -124t120.5 -306q0 -184 -123 -307t-307 -123q-172 0 -283 96t-137 242z" />
    <glyph glyph-name="six" unicode="6" horiz-adv-x="1013" 
d="M184 737l369 553h174l-287 -430l21 4q42 6 51 6q184 0 312 -128t128 -312t-128 -312t-312 -128t-312 128t-128 312q0 114 55 215q25 52 57 92zM512 133q117 0 196.5 84t79.5 213q0 122 -80 204.5t-196 82.5t-196 -82.5t-80 -204.5q0 -128 79.5 -212.5t196.5 -84.5z" />
    <glyph glyph-name="seven" unicode="7" horiz-adv-x="901" 
d="M133 0l533 1147h-594v143h778v-112l-543 -1178h-174z" />
    <glyph glyph-name="eight" unicode="8" horiz-adv-x="1003" 
d="M72 369q0 156 112 256q46 43 113 71q-49 17 -88 56q-86 82 -86 211q0 132 110.5 234.5t268.5 102.5t268.5 -102.5t110.5 -234.5q0 -127 -88 -211q-39 -39 -86 -56q63 -28 112 -71q113 -105 113 -256q0 -157 -121 -268t-309 -111t-309 111t-121 268zM236 379
q0 -110 72 -178t194 -68t194 68t72 178q0 102 -72.5 168.5t-193.5 66.5t-193.5 -66.5t-72.5 -168.5zM287 952q0 -78 62 -136t153 -58t153 58t62 136q0 85 -62 145t-153 60t-153 -60t-62 -145z" />
    <glyph glyph-name="nine" unicode="9" horiz-adv-x="1013" 
d="M287 0l286 430l-20 -6q-28 -4 -51 -4q-185 0 -313 128t-128 312t128 312t313 128q184 0 312 -128t128 -312q0 -114 -57 -215q-20 -43 -56 -92l-368 -553h-174zM778 860q0 128 -79.5 212.5t-196.5 84.5t-197 -84t-80 -213q0 -122 80.5 -204.5t196.5 -82.5t196 82.5
t80 204.5z" />
    <glyph glyph-name="colon" unicode=":" horiz-adv-x="348" 
d="M72 92q0 47 27.5 75t74.5 28t74.5 -28t27.5 -75t-27.5 -74.5t-74.5 -27.5t-74.5 27.5t-27.5 74.5zM72 819q0 47 27.5 75t74.5 28t74.5 -28t27.5 -75t-27.5 -74.5t-74.5 -27.5t-74.5 27.5t-27.5 74.5z" />
    <glyph glyph-name="semicolon" unicode=";" horiz-adv-x="348" 
d="M72 819q0 47 27.5 75t74.5 28t74.5 -28t27.5 -75t-27.5 -74.5t-74.5 -27.5t-74.5 27.5t-27.5 74.5zM113 -195l-21 31q22 22 37 43q38 57 45 111q-47 0 -74.5 27.5t-27.5 74.5t27.5 75t74.5 28t74.5 -28t27.5 -75q0 -124 -81 -217q-45 -48 -82 -70z" />
    <glyph glyph-name="less" unicode="&#x3c;" horiz-adv-x="901" 
d="M92 399v103l717 389v-154l-543 -286l543 -287v-154z" />
    <glyph glyph-name="equal" unicode="=" horiz-adv-x="901" 
d="M61 645v143h779v-143h-779zM61 266v144h779v-144h-779z" />
    <glyph glyph-name="greater" unicode="&#x3e;" horiz-adv-x="901" 
d="M92 10v154l543 287l-543 286v154l717 -389v-103z" />
    <glyph glyph-name="question" unicode="?" horiz-adv-x="880" 
d="M348 328v20q0 79 16.5 142t42.5 104t57.5 75.5t63.5 63.5t58 59.5t42.5 73t16.5 95.5q0 86 -54 141t-140 55q-102 0 -158.5 -64t-56.5 -192v-20h-164v20q0 189 103 294t276 105q154 0 256 -96t102 -243q0 -66 -16.5 -119.5t-42.5 -89t-57.5 -66.5t-63.5 -62.5t-58 -67
t-42.5 -89t-16.5 -119.5v-20h-164zM328 92q0 47 27.5 75t74.5 28t74.5 -28t27.5 -75t-27.5 -74.5t-74.5 -27.5t-74.5 27.5t-27.5 74.5z" />
    <glyph glyph-name="at" unicode="@" horiz-adv-x="1515" 
d="M1055 -20l61 -103q-70 -38 -104 -51q-119 -51 -244 -51q-139 0 -266 54.5t-219 146.5t-146.5 219t-54.5 266t54.5 266t146.5 219t219 146.5t266 54.5q185 0 343.5 -91t250.5 -244.5t92 -330.5q0 -176 -77.5 -272t-198.5 -96q-97 0 -166 61q-32 29 -49 64q-22 -34 -60 -64
q-77 -61 -176 -61q-126 0 -216.5 99t-90.5 249t90.5 249t216.5 99q90 0 162 -57q31 -25 53 -56l31 103h92v-404q0 -86 31 -128t82 -42q143 0 143 256q0 108 -45.5 210.5t-120 177t-177 120t-210.5 45.5q-146 0 -273 -76.5t-203.5 -209t-76.5 -287.5q0 -116 45 -223
t120.5 -183.5t177 -122t210.5 -45.5q105 0 205 45q41 19 82 48zM748 236q92 0 148 60.5t56 164.5t-56 164.5t-148 60.5q-87 0 -146 -63t-59 -162t59 -162t146 -63z" />
    <glyph glyph-name="A" unicode="A" horiz-adv-x="1126" 
d="M0 0l492 1290h143l491 -1290h-174l-123 317h-532l-123 -317h-174zM348 461h430l-215 563z" />
    <glyph glyph-name="B" unicode="B" horiz-adv-x="1146" 
d="M164 0v1290h481q159 0 264 -100t105 -248q0 -113 -72 -197q-38 -41 -72 -59q56 -29 97 -70q98 -98 98 -247q0 -146 -118.5 -257.5t-291.5 -111.5h-491zM328 748h317q91 0 153 58t62 136q0 85 -62 145t-153 60h-317v-399zM328 143h327q108 0 177 67.5t69 168.5
q0 92 -71 158.5t-175 66.5h-327v-461z" />
    <glyph glyph-name="C" unicode="C" horiz-adv-x="1290" 
d="M1055 430h174q-57 -194 -201.5 -317t-351.5 -123q-117 0 -227.5 51t-193.5 137.5t-133 209t-50 257.5t50 257.5t133 209t193.5 137.5t227.5 51q199 0 342.5 -123.5t200.5 -316.5h-175q-34 130 -130.5 213.5t-237.5 83.5q-84 0 -163.5 -39t-141 -105.5t-98.5 -163
t-37 -204.5t37 -204.5t98.5 -163t141 -105.5t163.5 -39q148 0 246.5 83t132.5 214z" />
    <glyph glyph-name="D" unicode="D" horiz-adv-x="1218" 
d="M328 143h194q118 0 221.5 65t166.5 181t63 256t-63 256t-166.5 181t-221.5 65h-194v-1004zM164 0v1290h358q167 0 308 -83.5t224 -232t83 -329.5t-83 -329.5t-224 -232t-308 -83.5h-358z" />
    <glyph glyph-name="E" unicode="E" horiz-adv-x="1105" 
d="M164 0v1290h819v-143h-655v-410h604v-143h-604v-451h676v-143h-840z" />
    <glyph glyph-name="F" unicode="F" horiz-adv-x="1024" 
d="M164 0v1290h788v-143h-624v-430h512v-144h-512v-573h-164z" />
    <glyph glyph-name="G" unicode="G" horiz-adv-x="1382" 
d="M1116 0l-41 154q-46 -46 -102 -82q-136 -82 -287 -82q-117 0 -227.5 51t-193.5 137.5t-133 209t-50 257.5t50 257.5t133 209t193.5 137.5t227.5 51q206 0 342 -112t201 -307h-174q-86 276 -369 276q-84 0 -163.5 -39t-141 -105.5t-98.5 -163t-37 -204.5t37 -204.5
t98.5 -163t141 -105.5t163.5 -39q100 0 190.5 53.5t144.5 139t54 176.5h-379v143h543v-645h-123z" />
    <glyph glyph-name="H" unicode="H" horiz-adv-x="1280" 
d="M164 0v1290h164v-563h624v563h164v-1290h-164v584h-624v-584h-164z" />
    <glyph glyph-name="I" unicode="I" horiz-adv-x="491" 
d="M164 0v1290h164v-1290h-164z" />
    <glyph glyph-name="J" unicode="J" horiz-adv-x="942" 
d="M20 348h164q8 -93 71 -154t155 -61q99 0 162 61t63 154v942h164v-942q0 -148 -111.5 -253t-277.5 -105q-167 0 -278.5 105t-111.5 253z" />
    <glyph glyph-name="K" unicode="K" horiz-adv-x="1054" 
d="M164 0v1290h164v-635l501 635h195l-502 -635l543 -655h-195l-542 655v-655h-164z" />
    <glyph glyph-name="L" unicode="L" horiz-adv-x="962" 
d="M164 0v1290h164v-1147h614v-143h-778z" />
    <glyph glyph-name="M" unicode="M" horiz-adv-x="1556" 
d="M164 0v1290h133l481 -1034l482 1034h133v-1290h-164v870l-400 -870h-102l-399 870v-870h-164z" />
    <glyph glyph-name="N" unicode="N" horiz-adv-x="1280" 
d="M164 0v1290h143l645 -973v973h164v-1290h-143l-645 973v-973h-164z" />
    <glyph glyph-name="O" unicode="O" horiz-adv-x="1351" 
d="M676 1157q-84 0 -163.5 -39t-141 -105.5t-98.5 -163t-37 -204.5t37 -204.5t98.5 -163t141 -105.5t163.5 -39t163.5 39t141 105.5t98.5 163t37 204.5t-37 204.5t-98.5 163t-141 105.5t-163.5 39zM676 1300q117 0 227.5 -51t193.5 -137.5t133 -209t50 -257.5t-50 -257.5
t-133 -209t-193.5 -137.5t-227.5 -51t-227.5 51t-193.5 137.5t-133 209t-50 257.5t50 257.5t133 209t193.5 137.5t227.5 51z" />
    <glyph glyph-name="P" unicode="P" horiz-adv-x="1095" 
d="M164 0v1290h440q109 0 204 -54.5t150.5 -146.5t55.5 -198t-55.5 -198t-150.5 -146.5t-204 -54.5h-276v-492h-164zM328 635h276q101 0 173.5 75t72.5 181t-72.5 181t-173.5 75h-276v-512z" />
    <glyph glyph-name="Q" unicode="Q" horiz-adv-x="1372" 
d="M1157 -51l-153 153q-39 -33 -91 -57q-101 -55 -237 -55q-117 0 -227.5 51t-193.5 137.5t-133 209t-50 257.5t50 257.5t133 209t193.5 137.5t227.5 51t227.5 -51t193.5 -137.5t133 -209t50 -257.5q0 -171 -82 -323q-40 -73 -82 -117l144 -144zM768 338l102 113l144 -144
q36 49 51 88q51 116 51 250q0 108 -37 204.5t-98.5 163t-141 105.5t-163.5 39t-163.5 -39t-141 -105.5t-98.5 -163t-37 -204.5t37 -204.5t98.5 -163t141 -105.5t163.5 -39q86 0 162 35q35 15 63 37z" />
    <glyph glyph-name="R" unicode="R" horiz-adv-x="1136" 
d="M164 0v1290h481q160 0 274.5 -112t114.5 -267q0 -186 -143 -295q-63 -49 -141 -73l315 -543h-184l-308 532h-245v-532h-164zM328 676h317q92 0 158.5 69t66.5 166q0 98 -67 167t-158 69h-317v-471z" />
    <glyph glyph-name="S" unicode="S" horiz-adv-x="1013" 
d="M82 379h164q0 -118 68 -182t198 -64q126 0 196 57.5t70 147.5q0 64 -38 109t-98.5 71.5t-133.5 48.5t-146 50t-133.5 66.5t-98.5 106.5t-38 162q0 136 121 242t299 106q167 0 283 -113.5t116 -275.5h-163q0 108 -67.5 177t-168.5 69q-111 0 -183.5 -62t-72.5 -143
q0 -64 38 -109t98.5 -71.5t133.5 -48.5t146 -50t133.5 -66.5t98.5 -106.5t38 -162q0 -144 -118 -246t-312 -102q-198 0 -314 108.5t-116 280.5z" />
    <glyph glyph-name="T" unicode="T" horiz-adv-x="1003" 
d="M420 0v1147h-389v143h942v-143h-389v-1147h-164z" />
    <glyph glyph-name="U" unicode="U" horiz-adv-x="1228" 
d="M143 451v839h164v-839q0 -147 83.5 -232.5t223.5 -85.5t224 85.5t84 232.5v839h163v-839q0 -200 -132.5 -330.5t-338.5 -130.5t-338.5 130.5t-132.5 330.5z" />
    <glyph glyph-name="V" unicode="V" horiz-adv-x="1146" 
d="M492 0l-472 1290h175l378 -1054l379 1054h174l-471 -1290h-163z" />
    <glyph glyph-name="W" unicode="W" horiz-adv-x="1617" 
d="M420 0l-400 1290h175l286 -932l277 932h102l277 -932l286 932h174l-399 -1290h-113l-276 932l-277 -932h-112z" />
    <glyph glyph-name="X" unicode="X" horiz-adv-x="1064" 
d="M20 0l420 655l-399 635h184l307 -491l308 491h184l-399 -635l419 -655h-194l-318 512l-317 -512h-195z" />
    <glyph glyph-name="Y" unicode="Y" 
d="M440 0v502l-420 788h175l327 -614l328 614h174l-420 -788v-502h-164z" />
    <glyph glyph-name="Z" unicode="Z" horiz-adv-x="993" 
d="M61 0v102l635 1045h-614v143h819v-102l-635 -1045h666v-143h-871z" />
    <glyph glyph-name="bracketleft" unicode="[" horiz-adv-x="583" 
d="M164 -369v1659h379v-133h-236v-1393h236v-133h-379z" />
    <glyph glyph-name="backslash" unicode="\" horiz-adv-x="675" 
d="M532 -369l-532 1659h143l533 -1659h-144z" />
    <glyph glyph-name="bracketright" unicode="]" horiz-adv-x="583" 
d="M41 -369v133h235v1393h-235v133h379v-1659h-379z" />
    <glyph glyph-name="asciicircum" unicode="^" horiz-adv-x="778" 
d="M82 707l276 583h62l276 -583h-123l-184 389l-184 -389h-123z" />
    <glyph glyph-name="underscore" unicode="_" horiz-adv-x="532" 
d="M-41 -338v123h614v-123h-614z" />
    <glyph glyph-name="grave" unicode="`" horiz-adv-x="399" 
d="M236 1044l-175 246h154l123 -246h-102z" />
    <glyph glyph-name="a" unicode="a" horiz-adv-x="952" 
d="M717 0l-41 102q-28 -32 -70 -57q-83 -55 -207 -55q-136 0 -221.5 79t-85.5 197q0 69 27 120.5t91 92.5t181 62.5t285 21.5v51q0 71 -55.5 122.5t-139.5 51.5q-82 0 -123.5 -33.5t-60.5 -99.5h-164q18 121 109 199t239 78q151 0 249.5 -93t98.5 -225v-614h-112zM676 348
v72q-135 0 -222.5 -10.5t-131.5 -33.5t-60 -50.5t-16 -69.5q0 -49 43 -86t110 -37q118 0 197.5 67t79.5 148z" />
    <glyph glyph-name="b" unicode="b" horiz-adv-x="1075" 
d="M563 133q119 0 203 92t84 236t-84 235.5t-203 91.5t-203 -91.5t-84 -235.5t84 -236t203 -92zM143 0v1290h154v-481q23 30 70 61q94 62 206 62q181 0 306 -133.5t125 -337.5t-125 -337.5t-306 -133.5q-123 0 -206 55q-47 28 -70 57l-41 -102h-113z" />
    <glyph glyph-name="c" unicode="c" horiz-adv-x="962" 
d="M748 328h153q-34 -145 -142 -241.5t-257 -96.5q-181 0 -305.5 133.5t-124.5 337.5t124.5 337.5t305.5 133.5q149 0 257 -96.5t142 -241.5h-153q-26 81 -92.5 137.5t-153.5 56.5q-112 0 -194.5 -92t-82.5 -235t83 -235.5t194 -92.5q86 0 153 56.5t93 138.5z" />
    <glyph glyph-name="d" unicode="d" horiz-adv-x="1075" 
d="M512 133q119 0 203 92t84 236t-84 235.5t-203 91.5t-203 -91.5t-84 -235.5t84 -236t203 -92zM819 0l-41 102q-29 -33 -69 -57q-83 -55 -207 -55q-181 0 -305.5 133.5t-124.5 337.5t124.5 337.5t305.5 133.5q113 0 207 -62q38 -25 69 -61v481h154v-1290h-113z" />
    <glyph glyph-name="e" unicode="e" horiz-adv-x="993" 
d="M737 246h164q-51 -112 -148.5 -184t-240.5 -72q-187 0 -313.5 133t-126.5 338q0 101 36 189.5t95.5 149.5t137.5 96.5t161 35.5q84 0 160.5 -33t134 -92t91.5 -146.5t34 -189.5q0 -10 -7 -59l-4 -23h-675q8 -102 88.5 -179t187.5 -77q81 0 137.5 34.5t87.5 78.5zM236 522
h532q-17 116 -92 191t-174 75t-174 -75t-92 -191z" />
    <glyph glyph-name="f" unicode="f" horiz-adv-x="563" 
d="M164 0v778h-113v144h113v71q0 134 78.5 220.5t187.5 86.5q43 0 70 -10l22 -10v-133l-14 4q-24 6 -37 6q-70 0 -112 -43.5t-42 -120.5v-71h205v-144h-205v-778h-153z" />
    <glyph glyph-name="g" unicode="g" 
d="M123 -72h153q57 -133 226 -133q115 0 185.5 67t70.5 169v123q-29 -36 -64 -62q-85 -61 -202 -61q-180 0 -300 126t-120 324t120.5 324.5t299.5 126.5q122 0 202 -58q34 -22 64 -55l41 103h112v-891q0 -164 -113.5 -271.5t-295.5 -107.5q-152 0 -250 77t-129 199zM502 174
q118 0 197 85.5t79 221.5t-79 221.5t-197 85.5t-197.5 -85.5t-79.5 -221.5t79.5 -221.5t197.5 -85.5z" />
    <glyph glyph-name="h" unicode="h" 
d="M143 0v1290h154v-481q26 33 68 61q94 62 198 62q149 0 254 -113t105 -287v-532h-154v532q0 113 -66 184.5t-159 71.5q-110 0 -178 -70t-68 -186v-532h-154z" />
    <glyph glyph-name="i" unicode="i" horiz-adv-x="419" 
d="M133 0v922h154v-922h-154zM113 1182q0 43 27.5 70.5t68.5 27.5q43 0 70.5 -27.5t27.5 -70.5q0 -42 -27.5 -69.5t-70.5 -27.5q-41 0 -68.5 28t-27.5 69z" />
    <glyph glyph-name="j" unicode="j" horiz-adv-x="419" 
d="M-72 -317v133l15 -6q25 -5 37 -5q70 0 111.5 43.5t41.5 120.5v953h154v-953q0 -134 -79 -220.5t-188 -86.5q-42 0 -69 10q-9 2 -23 11zM113 1182q0 43 27.5 70.5t68.5 27.5q43 0 70.5 -27.5t27.5 -70.5q0 -42 -27.5 -69.5t-70.5 -27.5q-41 0 -68.5 28t-27.5 69z" />
    <glyph glyph-name="k" unicode="k" horiz-adv-x="860" 
d="M143 0v1290h154v-809l348 441h174l-348 -430l399 -492h-184l-389 481v-481h-154z" />
    <glyph glyph-name="l" unicode="l" horiz-adv-x="440" 
d="M143 0v1290h154v-1290h-154z" />
    <glyph glyph-name="m" unicode="m" horiz-adv-x="1474" 
d="M133 0v922h113l41 -103q23 33 55 55q73 58 170 58q115 0 197 -82q40 -40 59 -82q26 45 66 82q94 82 210 82q128 0 218 -103.5t90 -275.5v-553h-154v553q0 113 -51.5 174t-132.5 61t-138 -65t-57 -170v-553h-153v553q0 113 -51.5 174t-133.5 61q-77 0 -135.5 -67.5
t-58.5 -167.5v-553h-154z" />
    <glyph glyph-name="n" unicode="n" horiz-adv-x="1034" 
d="M133 0v922h113l41 -103q29 33 67 55q88 58 199 58q149 0 253.5 -113t104.5 -287v-532h-153v532q0 113 -66.5 184.5t-159.5 71.5q-110 0 -177.5 -70t-67.5 -186v-532h-154z" />
    <glyph glyph-name="o" unicode="o" horiz-adv-x="1003" 
d="M502 133q110 0 193 92.5t83 235.5t-83 235t-193 92q-112 0 -194.5 -92t-82.5 -235t83 -235.5t194 -92.5zM502 -10q-181 0 -305.5 133.5t-124.5 337.5t124.5 337.5t305.5 133.5t305.5 -133.5t124.5 -337.5t-124.5 -337.5t-305.5 -133.5z" />
    <glyph glyph-name="p" unicode="p" horiz-adv-x="1064" 
d="M553 133q119 0 203 92t84 236t-84 235.5t-203 91.5t-203 -91.5t-84 -235.5t84 -236t203 -92zM133 -328v1250h113l41 -103q27 30 69 55q88 58 207 58q181 0 305.5 -133.5t124.5 -337.5t-124.5 -337.5t-305.5 -133.5q-115 0 -207 61q-43 29 -69 62v-441h-154z" />
    <glyph glyph-name="q" unicode="q" horiz-adv-x="1064" 
d="M512 133q119 0 203 92t84 236t-84 235.5t-203 91.5t-203 -91.5t-84 -235.5t84 -236t203 -92zM778 -328v441q-33 -38 -69 -62q-92 -61 -207 -61q-181 0 -305.5 133.5t-124.5 337.5t124.5 337.5t305.5 133.5q119 0 207 -58q34 -20 69 -55l41 103h113v-1250h-154z" />
    <glyph glyph-name="r" unicode="r" horiz-adv-x="614" 
d="M133 0v922h113l41 -103q29 33 67 55q88 58 199 58h20v-154h-41q-110 0 -177.5 -70t-67.5 -186v-522h-154z" />
    <glyph glyph-name="s" unicode="s" horiz-adv-x="808" 
d="M72 276h153q8 -65 55 -104t130 -39q75 0 119 38.5t44 94.5q0 42 -26.5 68.5t-69 40.5t-93.5 25t-102.5 27.5t-94 42t-69 75.5t-26.5 121q0 109 86.5 187.5t220.5 78.5q144 0 227 -75.5t91 -201.5h-154q-16 133 -164 133q-67 0 -110 -36.5t-43 -85.5q0 -42 26.5 -69
t69 -40.5t93.5 -24.5t102.5 -28t94 -42.5t69 -75t26.5 -120.5q0 -118 -87 -197t-230 -79q-150 0 -240 80t-98 206z" />
    <glyph glyph-name="t" unicode="t" horiz-adv-x="655" 
d="M205 297v481h-164v144h72q112 0 112 112v133h133v-245h205v-144h-205v-481q0 -77 42 -120.5t112 -43.5q17 0 37 4l14 6v-133q-11 -7 -22 -10q-30 -10 -70 -10q-109 0 -187.5 86.5t-78.5 220.5z" />
    <glyph glyph-name="u" unicode="u" 
d="M133 389v533h154v-533q0 -113 64.5 -184.5t160.5 -71.5q110 0 178 70t68 186v533h153v-922h-112l-41 102q-24 -31 -68 -57q-83 -55 -198 -55q-149 0 -254 112.5t-105 286.5z" />
    <glyph glyph-name="v" unicode="v" horiz-adv-x="921" 
d="M389 0l-369 922h164l277 -707l276 707h164l-369 -922h-143z" />
    <glyph glyph-name="w" unicode="w" horiz-adv-x="1310" 
d="M328 0l-308 922h164l215 -656l205 656h103l204 -656l215 656h164l-307 -922h-123l-205 655l-204 -655h-123z" />
    <glyph glyph-name="x" unicode="x" horiz-adv-x="839" 
d="M0 0l328 471l-308 451h175l225 -338l225 338h174l-307 -451l328 -471h-174l-246 358l-246 -358h-174z" />
    <glyph glyph-name="y" unicode="y" horiz-adv-x="921" 
d="M174 -328v123q66 0 102 29t62 94l41 102l-359 902h164l277 -707l276 707h164l-399 -1004q-56 -140 -116 -198t-150 -58q-15 0 -43 4z" />
    <glyph glyph-name="z" unicode="z" horiz-adv-x="778" 
d="M61 0v133l451 645h-451v144h635v-134l-450 -645h471v-143h-656z" />
    <glyph glyph-name="braceleft" unicode="{" horiz-adv-x="614" 
d="M205 -113v400q0 112 -113 112v123q113 0 113 113v399q0 124 68 190t198 66h102v-133h-106q-51 0 -85 -34.5t-34 -88.5v-399q0 -92 -61 -141q-33 -25 -62 -33q29 -8 62 -33q61 -53 61 -141v-400q0 -54 34 -88.5t85 -34.5h106v-133h-102q-130 0 -198 66t-68 190z" />
    <glyph glyph-name="bar" unicode="|" horiz-adv-x="634" 
d="M246 -328v1618h143v-1618h-143z" />
    <glyph glyph-name="braceright" unicode="}" horiz-adv-x="614" 
d="M41 -369v133h106q51 0 85 34.5t34 88.5v400q0 87 62 141q33 26 61 33q-28 7 -61 33q-62 50 -62 141v399q0 54 -34 88.5t-85 34.5h-106v133h102q130 0 198.5 -66t68.5 -190v-399q0 -113 112 -113v-123q-112 0 -112 -112v-400q0 -124 -68.5 -190t-198.5 -66h-102z" />
    <glyph glyph-name="asciitilde" unicode="~" horiz-adv-x="901" 
d="M123 420h-123q0 129 63 197.5t173 68.5q60 0 145.5 -36t161.5 -71.5t112 -35.5q55 0 89 36t34 97h123q0 -130 -64 -198t-182 -68q-44 0 -106.5 22.5t-114 49t-108 49t-90.5 22.5q-48 0 -80.5 -36.5t-32.5 -96.5z" />
    <glyph glyph-name="nbspace" unicode="&#xa0;" horiz-adv-x="440" 
 />
    <glyph glyph-name="exclamdown" unicode="&#xa1;" horiz-adv-x="532" 
d="M164 -328l41 942h123l41 -942h-205zM164 829q0 47 27.5 75t74.5 28t75 -28t28 -75t-28 -74.5t-75 -27.5t-74.5 27.5t-27.5 74.5z" />
    <glyph glyph-name="cent" unicode="&#xa2;" horiz-adv-x="962" 
d="M430 -184v184q-155 26 -256.5 147.5t-101.5 313.5t101.5 313.5t256.5 147.5v184h154v-184q124 -31 205 -114.5t112 -213.5h-153q-26 81 -92.5 137.5t-153.5 56.5q-112 0 -194.5 -92t-82.5 -235t83 -235.5t194 -92.5q86 0 153 56.5t93 138.5h153q-31 -130 -112 -213.5
t-205 -114.5v-184h-154z" />
    <glyph glyph-name="sterling" unicode="&#xa3;" horiz-adv-x="1075" 
d="M92 0v143q48 0 85.5 42t37.5 102v225h-113v143h113v267q0 156 115.5 267t283.5 111q152 0 267 -108t123 -250h-164q-8 93 -71 154t-155 61q-98 0 -166.5 -68.5t-68.5 -166.5v-267h348v-143h-348v-225q0 -70 -41 -111q-16 -19 -41 -33h686v-143h-891z" />
    <glyph glyph-name="currency" unicode="&#xa4;" horiz-adv-x="1126" 
d="M205 0v215h-154v143h154v154h-154v143h154v635h430q175 0 292 -113t117 -276t-117 -276t-292 -113h-266v-154h389v-143h-389v-215h-164zM369 655h266q109 0 177.5 68.5t68.5 177.5t-68 177.5t-178 68.5h-266v-492z" />
    <glyph glyph-name="yen" unicode="&#xa5;" 
d="M164 215v143h276v134h-276v143h205l-338 655h174l317 -614l318 614h174l-338 -655h205v-143h-277v-134h275v-143h-275v-215h-164v215h-276z" />
    <glyph glyph-name="brokenbar" unicode="&#xa6;" horiz-adv-x="634" 
d="M246 655v635h143v-635h-143zM246 -328v635h143v-635h-143z" />
    <glyph glyph-name="section" unicode="&#xa7;" horiz-adv-x="962" 
d="M164 41h143q8 -64 59 -109t126 -45q83 0 128.5 40t45.5 104q0 40 -24.5 71t-65 50.5t-92 39.5t-105.5 37t-105.5 45t-92 61t-65 86.5t-24.5 121.5q0 120 107 211q41 35 108 65q-38 14 -67 43q-66 66 -66 172q0 102 88.5 184t208.5 82q135 0 217 -72.5t100 -193.5h-143
q-8 57 -53.5 95t-120.5 38q-68 0 -111 -39t-43 -94q0 -48 30.5 -83.5t79.5 -59.5t107.5 -46t117.5 -49.5t108 -63t79.5 -94.5t30.5 -136q0 -123 -108 -207q-46 -37 -107 -59q45 -17 76 -41q78 -62 78 -164q0 -111 -90.5 -194t-226.5 -83t-223 80t-105 207zM717 502
q0 85 -58.5 138.5t-207.5 96.5q-55 -14 -103 -39q-102 -62 -102 -155q0 -86 56 -134t210 -92q45 9 102 35q103 55 103 150z" />
    <glyph glyph-name="dieresis" unicode="&#xa8;" horiz-adv-x="614" 
d="M154 1096q-38 0 -65.5 27t-27.5 65t27.5 65t65.5 27t65 -27t27 -65t-27 -65t-65 -27zM461 1096q-38 0 -65 27t-27 65t27 65t65 27t65 -27t27 -65t-27 -65t-65 -27z" />
    <glyph glyph-name="copyright" unicode="&#xa9;" horiz-adv-x="1413" 
d="M707 102q132 0 247 71.5t184.5 197t69.5 274.5t-69.5 274.5t-184.5 197t-247 71.5q-133 0 -248 -71.5t-184.5 -197t-69.5 -274.5t69.5 -274.5t184.5 -197t248 -71.5zM881 532h123q-26 -97 -105 -166t-182 -69q-126 0 -222 101.5t-96 246.5t96 246.5t222 101.5
q103 0 182 -69t105 -166h-123q-39 123 -174 123q-76 0 -135.5 -67.5t-59.5 -168.5t59 -168t136 -67q135 0 174 122zM707 -10q-167 0 -310.5 86t-229 237t-85.5 332t85.5 332t229 237t310.5 86q125 0 240 -51t199 -137.5t134.5 -209t50.5 -257.5t-50.5 -257.5t-134.5 -209
t-199 -137.5t-240 -51z" />
    <glyph glyph-name="ordfeminine" unicode="&#xaa;" horiz-adv-x="573" 
d="M430 778l-20 62q-13 -19 -39 -37q-53 -35 -115 -35q-83 0 -133.5 41t-50.5 102q0 60 27.5 99t101.5 62.5t198 23.5v10q0 39 -28 65.5t-74 26.5q-82 0 -102 -61h-103q0 64 58 113.5t147 49.5q91 0 153 -58t62 -136v-328h-82zM399 983v31q-225 0 -225 -82q0 -33 25 -52.5
t77 -19.5q54 0 88.5 34.5t34.5 88.5z" />
    <glyph glyph-name="guillemotleft" unicode="&#xab;" horiz-adv-x="901" 
d="M297 133l-225 328l225 327h154l-226 -327l226 -328h-154zM676 133l-225 328l225 327h153l-225 -327l225 -328h-153z" />
    <glyph glyph-name="logicalnot" unicode="&#xac;" horiz-adv-x="901" 
d="M31 645v133h839v-409h-143v276h-696z" />
    <glyph glyph-name="uni00AD" unicode="&#xad;" horiz-adv-x="706" 
d="M72 451v143h563v-143h-563z" />
    <glyph glyph-name="registered" unicode="&#xae;" horiz-adv-x="1413" 
d="M492 307v676h235q91 0 158 -64.5t67 -150.5q0 -94 -78 -156q-34 -24 -75 -39l174 -266h-123l-164 246h-82v-246h-112zM604 655h123q47 0 80 33t33 80t-33 80t-80 33h-123v-226zM707 102q132 0 247 71.5t184.5 197t69.5 274.5t-69.5 274.5t-184.5 197t-247 71.5
q-133 0 -248 -71.5t-184.5 -197t-69.5 -274.5t69.5 -274.5t184.5 -197t248 -71.5zM707 -10q-167 0 -310.5 86t-229 237t-85.5 332t85.5 332t229 237t310.5 86q125 0 240 -51t199 -137.5t134.5 -209t50.5 -257.5t-50.5 -257.5t-134.5 -209t-199 -137.5t-240 -51z" />
    <glyph glyph-name="overscore" unicode="&#xaf;" horiz-adv-x="614" 
d="M61 1106v123h492v-123h-492z" />
    <glyph glyph-name="degree" unicode="&#xb0;" horiz-adv-x="634" 
d="M317 1188q-47 0 -84.5 -39.5t-37.5 -93.5t37.5 -93.5t84.5 -39.5t85 39.5t38 93.5t-38 93.5t-85 39.5zM72 1055q0 100 72.5 172.5t172.5 72.5t173 -72.5t73 -172.5t-73 -173t-173 -73t-172.5 73t-72.5 173z" />
    <glyph glyph-name="plusminus" unicode="&#xb1;" horiz-adv-x="901" 
d="M61 61v134h318v348h-318v133h318v338h143v-338h318v-133h-318v-348h318v-134h-779z" />
    <glyph glyph-name="twosuperior" unicode="&#xb2;" horiz-adv-x="522" 
d="M61 881v82l226 235q61 61 61 102q0 82 -92 82t-92 -92h-103q0 86 54.5 140.5t140.5 54.5q91 0 148 -53t57 -132q0 -29 -12.5 -56t-21.5 -37t-28 -29l-180 -195h242v-102h-400z" />
    <glyph glyph-name="threesuperior" unicode="&#xb3;" horiz-adv-x="542" 
d="M61 1065h103q0 -38 28 -65t74 -27q45 0 74 25t29 57q0 39 -28.5 65.5t-74.5 26.5h-53v92h53q37 0 59.5 20.5t22.5 51.5t-22 51t-60 20q-92 0 -92 -82h-102q0 79 54.5 132t139.5 53q84 0 139.5 -51.5t55.5 -122.5q0 -48 -31 -88q-16 -16 -31 -25q26 -11 41 -29
q41 -41 41 -114q0 -79 -57 -132t-148 -53q-99 0 -157 54t-58 141z" />
    <glyph glyph-name="acute" unicode="&#xb4;" horiz-adv-x="399" 
d="M61 1044l123 246h154l-174 -246h-103z" />
    <glyph glyph-name="mu" unicode="&#xb5;" 
d="M133 -328v1250h154v-533q0 -113 64.5 -184.5t160.5 -71.5q110 0 178 70t68 186v533h153v-922h-112l-41 102q-24 -31 -68 -57q-83 -55 -198 -55q-29 0 -56 4.5t-48 12t-39.5 16.5t-31.5 18t-22 16.5t-14 12.5l-5 4v-402h-143z" />
    <glyph glyph-name="paragraph" unicode="&#xb6;" horiz-adv-x="1024" 
d="M389 -184v880q-130 0 -218.5 86.5t-88.5 208.5q0 125 88.5 212t218.5 87h481v-1474h-133v1337h-215v-1337h-133z" />
    <glyph glyph-name="middot" unicode="&#xb7;" horiz-adv-x="440" 
d="M123 645q0 47 27.5 75t74.5 28t75 -28t28 -75t-28 -74.5t-75 -27.5t-74.5 27.5t-27.5 74.5z" />
    <glyph glyph-name="cedilla" unicode="&#xb8;" horiz-adv-x="399" 
d="M61 -338v82l25 -6q28 -4 57 -4q45 0 69 18t24 43t-24 43.5t-69 18.5q-9 0 -37 -7l-14 -4l64 154h90l-41 -82q61 -8 97 -43.5t36 -89.5q0 -57 -48 -95t-136 -38q-34 0 -66 4z" />
    <glyph glyph-name="onesuperior" unicode="&#xb9;" horiz-adv-x="419" 
d="M174 881v460l-82 -51l-51 82l164 103h82v-594h-113z" />
    <glyph glyph-name="ordmasculine" unicode="&#xba;" horiz-adv-x="634" 
d="M317 1188q-55 0 -99 -46.5t-44 -107.5t44 -107t99 -46t99.5 46t44.5 107t-44.5 107.5t-99.5 46.5zM317 1300q100 0 178 -80.5t78 -185.5t-78 -185.5t-178 -80.5t-178 80.5t-78 185.5t78 185.5t178 80.5z" />
    <glyph glyph-name="guillemotright" unicode="&#xbb;" horiz-adv-x="901" 
d="M451 133l225 328l-225 327h153l225 -327l-225 -328h-153zM72 133l225 328l-225 327h153l226 -327l-226 -328h-153z" />
    <glyph glyph-name="onequarter" unicode="&#xbc;" horiz-adv-x="1116" 
d="M82 0l788 1290h134l-789 -1290h-133zM174 696v461l-82 -51l-51 82l164 102h82v-594h-113zM614 113v82l246 399h123v-379h72v-102h-72v-113h-113v113h-256zM737 215h133v215z" />
    <glyph glyph-name="onehalf" unicode="&#xbd;" horiz-adv-x="1167" 
d="M82 0l788 1290h134l-789 -1290h-133zM174 696v461l-82 -51l-51 82l164 102h82v-594h-113zM707 0v82l225 235q61 61 61 103q0 82 -92 82t-92 -92h-102q0 86 54 140t140 54q91 0 148 -52.5t57 -131.5q0 -29 -12.5 -56t-22 -38t-27.5 -29l-180 -195h242v-102h-399z" />
    <glyph glyph-name="threequarters" unicode="&#xbe;" horiz-adv-x="1218" 
d="M205 0l788 1290h133l-788 -1290h-133zM61 881h103q0 -38 28 -65.5t74 -27.5q45 0 74 25t29 57q0 39 -28.5 66t-74.5 27h-53v92h53q38 0 60 20t22 51t-22.5 51.5t-59.5 20.5q-92 0 -92 -82h-102q0 79 54.5 131.5t139.5 52.5q84 0 139.5 -51.5t55.5 -122.5q0 -48 -31 -88
q-13 -14 -31 -24q26 -11 41 -29q41 -41 41 -115q0 -79 -57 -131.5t-148 -52.5q-99 0 -157 54t-58 141zM717 113v82l246 399h122v-379h72v-102h-72v-113h-112v113h-256zM840 215h133v215z" />
    <glyph glyph-name="questiondown" unicode="&#xbf;" horiz-adv-x="860" 
d="M635 61v21h164v-21q0 -189 -103 -294t-276 -105q-158 0 -258.5 98t-100.5 242q0 66 16.5 117.5t42.5 85t57.5 62.5t63.5 58.5t58 63.5t42.5 86t16.5 119v10h164v-10q0 -79 -16.5 -140.5t-42.5 -100.5t-57.5 -71t-63.5 -59t-58 -56t-42.5 -70.5t-16.5 -94.5
q0 -82 53 -139.5t142 -57.5q102 0 158.5 64t56.5 192zM338 829q0 47 27.5 75t74.5 28t75 -28t28 -75t-28 -74.5t-75 -27.5t-74.5 27.5t-27.5 74.5z" />
    <glyph glyph-name="Agrave" unicode="&#xc0;" horiz-adv-x="1126" 
d="M0 0l492 1290h143l491 -1290h-174l-123 317h-532l-123 -317h-174zM348 461h430l-215 563zM492 1434l-175 245h154l123 -245h-102z" />
    <glyph glyph-name="Aacute" unicode="&#xc1;" horiz-adv-x="1126" 
d="M0 0l492 1290h143l491 -1290h-174l-123 317h-532l-123 -317h-174zM348 461h430l-215 563zM522 1434l123 245h154l-174 -245h-103z" />
    <glyph glyph-name="Acircumflex" unicode="&#xc2;" horiz-adv-x="1126" 
d="M0 0l492 1290h143l491 -1290h-174l-123 317h-532l-123 -317h-174zM348 461h430l-215 563zM307 1434l185 245h143l184 -245h-153l-103 143l-102 -143h-154z" />
    <glyph glyph-name="Atilde" unicode="&#xc3;" horiz-adv-x="1126" 
d="M0 0l492 1290h143l491 -1290h-174l-123 317h-532l-123 -317h-174zM348 461h430l-215 563zM369 1423h-93q0 112 51 174t124 62q42 0 77 -21t55 -45.5t45 -45.5t48 -21q33 0 57.5 32.5t24.5 90.5h92q0 -112 -50.5 -174t-123.5 -62q-42 0 -77.5 21t-55 45.5t-44.5 45.5
t-48 21q-33 0 -57.5 -32.5t-24.5 -90.5z" />
    <glyph glyph-name="Adieresis" unicode="&#xc4;" horiz-adv-x="1126" 
d="M0 0l492 1290h143l491 -1290h-174l-123 317h-532l-123 -317h-174zM348 461h430l-215 563zM410 1454q-38 0 -65.5 27t-27.5 65t27.5 65t65.5 27t65 -27t27 -65t-27 -65t-65 -27zM717 1454q-38 0 -65 27t-27 65t27 65t65 27t65 -27t27 -65t-27 -65t-65 -27z" />
    <glyph glyph-name="Aring" unicode="&#xc5;" horiz-adv-x="1126" 
d="M0 0l492 1290h143l491 -1290h-174l-123 317h-532l-123 -317h-174zM348 461h430l-215 563zM492 1567q0 -31 20 -51.5t51 -20.5t51.5 20.5t20.5 51.5t-20.5 51t-51.5 20t-51 -20t-20 -51zM399 1567q0 69 47.5 116.5t116.5 47.5t116.5 -47.5t47.5 -116.5t-47.5 -116.5
t-116.5 -47.5t-116.5 47.5t-47.5 116.5z" />
    <glyph glyph-name="AE" unicode="&#xc6;" horiz-adv-x="1648" 
d="M-61 0l727 1290h860v-143h-574v-410h523v-143h-523v-451h594v-143h-758v328h-481l-184 -328h-184zM389 471h399v676h-20z" />
    <glyph glyph-name="Ccedilla" unicode="&#xc7;" horiz-adv-x="1290" 
d="M532 -338v82l25 -6q28 -4 57 -4q45 0 69 18t24 43t-24.5 43.5t-68.5 18.5q-8 0 -36 -7l-15 -4l62 144q-108 12 -207.5 66t-176.5 138t-123 202t-46 249q0 135 50 257.5t133 209t193.5 137.5t227.5 51q199 0 342.5 -123.5t200.5 -316.5h-175q-34 130 -130.5 213.5
t-237.5 83.5q-84 0 -163.5 -39t-141 -105.5t-98.5 -163t-37 -204.5t37 -204.5t98.5 -163t141 -105.5t163.5 -39q148 0 246.5 83t132.5 214h174q-56 -192 -192.5 -312.5t-329.5 -127.5l-31 -72q61 -8 97 -43.5t36 -89.5q0 -57 -48 -95t-136 -38q-34 0 -66 4z" />
    <glyph glyph-name="Egrave" unicode="&#xc8;" horiz-adv-x="1105" 
d="M164 0v1290h819v-143h-655v-410h604v-143h-604v-451h676v-143h-840zM543 1434l-174 245h153l123 -245h-102z" />
    <glyph glyph-name="Eacute" unicode="&#xc9;" horiz-adv-x="1105" 
d="M164 0v1290h819v-143h-655v-410h604v-143h-604v-451h676v-143h-840zM522 1434l123 245h154l-174 -245h-103z" />
    <glyph glyph-name="Ecircumflex" unicode="&#xca;" horiz-adv-x="1105" 
d="M164 0v1290h819v-143h-655v-410h604v-143h-604v-451h676v-143h-840zM317 1434l185 245h143l184 -245h-153l-103 143l-102 -143h-154z" />
    <glyph glyph-name="Edieresis" unicode="&#xcb;" horiz-adv-x="1105" 
d="M164 0v1290h819v-143h-655v-410h604v-143h-604v-451h676v-143h-840zM420 1454q-38 0 -65 27t-27 65t27 65t65 27t65 -27t27 -65t-27 -65t-65 -27zM727 1454q-38 0 -65 27t-27 65t27 65t65 27t65 -27t27 -65t-27 -65t-65 -27z" />
    <glyph glyph-name="Igrave" unicode="&#xcc;" horiz-adv-x="491" 
d="M164 0v1290h164v-1290h-164zM184 1434l-174 245h154l123 -245h-103z" />
    <glyph glyph-name="Iacute" unicode="&#xcd;" horiz-adv-x="491" 
d="M164 0v1290h164v-1290h-164zM195 1434l122 245h154l-174 -245h-102z" />
    <glyph glyph-name="Icircumflex" unicode="&#xce;" horiz-adv-x="491" 
d="M164 0v1290h164v-1290h-164zM-10 1434l184 245h143l185 -245h-154l-102 143l-103 -143h-153z" />
    <glyph glyph-name="Idieresis" unicode="&#xcf;" horiz-adv-x="491" 
d="M164 0v1290h164v-1290h-164zM102 1454q-38 0 -65 27t-27 65t27 65t65 27t65.5 -27t27.5 -65t-27.5 -65t-65.5 -27zM410 1454q-38 0 -65.5 27t-27.5 65t27.5 65t65.5 27t65 -27t27 -65t-27 -65t-65 -27z" />
    <glyph glyph-name="Eth" unicode="&#xd0;" horiz-adv-x="1269" 
d="M215 0v563h-184v144h184v583h358q167 0 308 -83.5t224 -232t83 -329.5t-83 -329.5t-224 -232t-308 -83.5h-358zM379 143h194q118 0 221.5 65t166.5 181t63 256t-63 256t-166.5 181t-221.5 65h-194v-440h246v-144h-246v-420z" />
    <glyph glyph-name="Ntilde" unicode="&#xd1;" horiz-adv-x="1280" 
d="M164 0v1290h143l645 -973v973h164v-1290h-143l-645 973v-973h-164zM451 1423h-93q0 112 50.5 174t123.5 62q42 0 77 -21t55 -45.5t45.5 -45.5t48.5 -21q33 0 57.5 32.5t24.5 90.5h92q0 -112 -50.5 -174t-123.5 -62q-42 0 -77.5 21t-55.5 45.5t-45 45.5t-48 21
q-33 0 -57 -32.5t-24 -90.5z" />
    <glyph glyph-name="Ograve" unicode="&#xd2;" horiz-adv-x="1351" 
d="M676 1157q-84 0 -163.5 -39t-141 -105.5t-98.5 -163t-37 -204.5t37 -204.5t98.5 -163t141 -105.5t163.5 -39t163.5 39t141 105.5t98.5 163t37 204.5t-37 204.5t-98.5 163t-141 105.5t-163.5 39zM676 1300q117 0 227.5 -51t193.5 -137.5t133 -209t50 -257.5t-50 -257.5
t-133 -209t-193.5 -137.5t-227.5 -51t-227.5 51t-193.5 137.5t-133 209t-50 257.5t50 257.5t133 209t193.5 137.5t227.5 51zM625 1434l-174 245h153l123 -245h-102z" />
    <glyph glyph-name="Oacute" unicode="&#xd3;" horiz-adv-x="1351" 
d="M676 1157q-84 0 -163.5 -39t-141 -105.5t-98.5 -163t-37 -204.5t37 -204.5t98.5 -163t141 -105.5t163.5 -39t163.5 39t141 105.5t98.5 163t37 204.5t-37 204.5t-98.5 163t-141 105.5t-163.5 39zM676 1300q117 0 227.5 -51t193.5 -137.5t133 -209t50 -257.5t-50 -257.5
t-133 -209t-193.5 -137.5t-227.5 -51t-227.5 51t-193.5 137.5t-133 209t-50 257.5t50 257.5t133 209t193.5 137.5t227.5 51zM625 1434l123 245h153l-174 -245h-102z" />
    <glyph glyph-name="Ocircumflex" unicode="&#xd4;" horiz-adv-x="1351" 
d="M676 1157q-84 0 -163.5 -39t-141 -105.5t-98.5 -163t-37 -204.5t37 -204.5t98.5 -163t141 -105.5t163.5 -39t163.5 39t141 105.5t98.5 163t37 204.5t-37 204.5t-98.5 163t-141 105.5t-163.5 39zM676 1300q117 0 227.5 -51t193.5 -137.5t133 -209t50 -257.5t-50 -257.5
t-133 -209t-193.5 -137.5t-227.5 -51t-227.5 51t-193.5 137.5t-133 209t-50 257.5t50 257.5t133 209t193.5 137.5t227.5 51zM420 1434l184 245h144l184 -245h-154l-102 143l-103 -143h-153z" />
    <glyph glyph-name="Otilde" unicode="&#xd5;" horiz-adv-x="1351" 
d="M676 1157q-84 0 -163.5 -39t-141 -105.5t-98.5 -163t-37 -204.5t37 -204.5t98.5 -163t141 -105.5t163.5 -39t163.5 39t141 105.5t98.5 163t37 204.5t-37 204.5t-98.5 163t-141 105.5t-163.5 39zM676 1300q117 0 227.5 -51t193.5 -137.5t133 -209t50 -257.5t-50 -257.5
t-133 -209t-193.5 -137.5t-227.5 -51t-227.5 51t-193.5 137.5t-133 209t-50 257.5t50 257.5t133 209t193.5 137.5t227.5 51zM481 1423h-92q0 112 50.5 174t123.5 62q42 0 77 -21t55 -45.5t45 -45.5t48 -21q33 0 57.5 32.5t24.5 90.5h93q0 -112 -51 -174t-124 -62
q-42 0 -77.5 21t-55 45.5t-44.5 45.5t-48 21q-33 0 -57.5 -32.5t-24.5 -90.5z" />
    <glyph glyph-name="Odieresis" unicode="&#xd6;" horiz-adv-x="1351" 
d="M676 1157q-84 0 -163.5 -39t-141 -105.5t-98.5 -163t-37 -204.5t37 -204.5t98.5 -163t141 -105.5t163.5 -39t163.5 39t141 105.5t98.5 163t37 204.5t-37 204.5t-98.5 163t-141 105.5t-163.5 39zM676 1300q117 0 227.5 -51t193.5 -137.5t133 -209t50 -257.5t-50 -257.5
t-133 -209t-193.5 -137.5t-227.5 -51t-227.5 51t-193.5 137.5t-133 209t-50 257.5t50 257.5t133 209t193.5 137.5t227.5 51zM522 1454q-38 0 -65 27t-27 65t27 65t65 27t65 -27t27 -65t-27 -65t-65 -27zM829 1454q-38 0 -65 27t-27 65t27 65t65 27t65.5 -27t27.5 -65
t-27.5 -65t-65.5 -27z" />
    <glyph glyph-name="multiply" unicode="&#xd7;" horiz-adv-x="901" 
d="M123 285l235 235l-235 236l92 92l236 -236l235 236l92 -92l-235 -236l235 -235l-92 -92l-235 235l-236 -235z" />
    <glyph glyph-name="Oslash" unicode="&#xd8;" horiz-adv-x="1372" 
d="M307 379l666 655q-30 35 -74 62q-96 61 -213 61q-84 0 -163.5 -39t-141 -105.5t-98.5 -163t-37 -204.5q0 -106 30 -194q12 -40 31 -72zM41 123l154 143q-33 45 -58 105q-55 117 -55 274q0 135 50 257.5t133 209t193.5 137.5t227.5 51q161 0 295 -81q61 -39 104 -82
l144 133l102 -103l-153 -143q34 -53 55 -104q57 -125 57 -275q0 -135 -50 -257.5t-133 -209t-193.5 -137.5t-227.5 -51q-159 0 -295 82q-61 39 -104 82l-144 -134zM1065 911l-666 -655q28 -33 74 -61q98 -62 213 -62q84 0 163.5 39t141 105.5t98.5 163t37 204.5
q0 94 -30 195q-4 12 -9.5 24t-12 25.5t-9.5 21.5z" />
    <glyph glyph-name="Ugrave" unicode="&#xd9;" horiz-adv-x="1228" 
d="M143 451v839h164v-839q0 -147 83.5 -232.5t223.5 -85.5t224 85.5t84 232.5v839h163v-839q0 -200 -132.5 -330.5t-338.5 -130.5t-338.5 130.5t-132.5 330.5zM573 1434l-174 245h154l123 -245h-103z" />
    <glyph glyph-name="Uacute" unicode="&#xda;" horiz-adv-x="1228" 
d="M143 451v839h164v-839q0 -147 83.5 -232.5t223.5 -85.5t224 85.5t84 232.5v839h163v-839q0 -200 -132.5 -330.5t-338.5 -130.5t-338.5 130.5t-132.5 330.5zM553 1434l123 245h153l-174 -245h-102z" />
    <glyph glyph-name="Ucircumflex" unicode="&#xdb;" horiz-adv-x="1228" 
d="M143 451v839h164v-839q0 -147 83.5 -232.5t223.5 -85.5t224 85.5t84 232.5v839h163v-839q0 -200 -132.5 -330.5t-338.5 -130.5t-338.5 130.5t-132.5 330.5zM358 1434l185 245h143l184 -245h-153l-103 143l-102 -143h-154z" />
    <glyph glyph-name="Udieresis" unicode="&#xdc;" horiz-adv-x="1228" 
d="M143 451v839h164v-839q0 -147 83.5 -232.5t223.5 -85.5t224 85.5t84 232.5v839h163v-839q0 -200 -132.5 -330.5t-338.5 -130.5t-338.5 130.5t-132.5 330.5zM461 1454q-38 0 -65 27t-27 65t27 65t65 27t65 -27t27 -65t-27 -65t-65 -27zM768 1454q-38 0 -65 27t-27 65
t27 65t65 27t65 -27t27 -65t-27 -65t-65 -27z" />
    <glyph glyph-name="Yacute" unicode="&#xdd;" 
d="M440 0v502l-420 788h175l327 -614l328 614h174l-420 -788v-502h-164zM481 1434l123 245h154l-174 -245h-103z" />
    <glyph glyph-name="Thorn" unicode="&#xde;" horiz-adv-x="1187" 
d="M164 0v1290h164v-225h368q166 0 288 -117t122 -272t-122 -272t-288 -117h-368v-287h-164zM328 430h368q100 0 173 73t73 173t-73 173t-173 73h-368v-492z" />
    <glyph glyph-name="germandbls" unicode="&#xdf;" horiz-adv-x="1024" 
d="M133 0v952q0 140 108.5 244t260.5 104q154 0 256 -102t102 -256q0 -116 -61 -197q-27 -38 -62 -59q61 -25 107 -68q108 -96 108 -260q0 -153 -100 -255.5t-248 -102.5h-102v133h102q85 0 140 63t55 162q0 107 -53.5 166.5t-141.5 59.5h-102v133q87 0 146 63t59 162
t-59 162t-146 63q-86 0 -150.5 -64.5t-64.5 -150.5v-952h-154z" />
    <glyph glyph-name="agrave" unicode="&#xe0;" horiz-adv-x="952" 
d="M717 0l-41 102q-28 -32 -70 -57q-83 -55 -207 -55q-136 0 -221.5 79t-85.5 197q0 69 27 120.5t91 92.5t181 62.5t285 21.5v51q0 71 -55.5 122.5t-139.5 51.5q-82 0 -123.5 -33.5t-60.5 -99.5h-164q18 121 109 199t239 78q151 0 249.5 -93t98.5 -225v-614h-112zM676 348
v72q-135 0 -222.5 -10.5t-131.5 -33.5t-60 -50.5t-16 -69.5q0 -49 43 -86t110 -37q118 0 197.5 67t79.5 148zM440 1065l-174 246h154l123 -246h-103z" />
    <glyph glyph-name="aacute" unicode="&#xe1;" horiz-adv-x="952" 
d="M717 0l-41 102q-28 -32 -70 -57q-83 -55 -207 -55q-136 0 -221.5 79t-85.5 197q0 69 27 120.5t91 92.5t181 62.5t285 21.5v51q0 71 -55.5 122.5t-139.5 51.5q-82 0 -123.5 -33.5t-60.5 -99.5h-164q18 121 109 199t239 78q151 0 249.5 -93t98.5 -225v-614h-112zM676 348
v72q-135 0 -222.5 -10.5t-131.5 -33.5t-60 -50.5t-16 -69.5q0 -49 43 -86t110 -37q118 0 197.5 67t79.5 148zM440 1065l123 246h154l-174 -246h-103z" />
    <glyph glyph-name="acircumflex" unicode="&#xe2;" horiz-adv-x="952" 
d="M717 0l-41 102q-28 -32 -70 -57q-83 -55 -207 -55q-136 0 -221.5 79t-85.5 197q0 69 27 120.5t91 92.5t181 62.5t285 21.5v51q0 71 -55.5 122.5t-139.5 51.5q-82 0 -123.5 -33.5t-60.5 -99.5h-164q18 121 109 199t239 78q151 0 249.5 -93t98.5 -225v-614h-112zM676 348
v72q-135 0 -222.5 -10.5t-131.5 -33.5t-60 -50.5t-16 -69.5q0 -49 43 -86t110 -37q118 0 197.5 67t79.5 148zM236 1065l184 246h143l185 -246h-154l-102 143l-103 -143h-153z" />
    <glyph glyph-name="atilde" unicode="&#xe3;" horiz-adv-x="952" 
d="M717 0l-41 102q-28 -32 -70 -57q-83 -55 -207 -55q-136 0 -221.5 79t-85.5 197q0 69 27 120.5t91 92.5t181 62.5t285 21.5v51q0 71 -55.5 122.5t-139.5 51.5q-82 0 -123.5 -33.5t-60.5 -99.5h-164q18 121 109 199t239 78q151 0 249.5 -93t98.5 -225v-614h-112zM676 348
v72q-135 0 -222.5 -10.5t-131.5 -33.5t-60 -50.5t-16 -69.5q0 -49 43 -86t110 -37q118 0 197.5 67t79.5 148zM297 1055h-92q0 112 50.5 173.5t123.5 61.5q42 0 77 -21t55 -45.5t45 -45.5t48 -21q33 0 57.5 32.5t24.5 90.5h92q0 -112 -50.5 -174t-123.5 -62q-42 0 -77.5 21
t-55 46t-44.5 46t-48 21q-33 0 -57.5 -32.5t-24.5 -90.5z" />
    <glyph glyph-name="adieresis" unicode="&#xe4;" horiz-adv-x="952" 
d="M717 0l-41 102q-28 -32 -70 -57q-83 -55 -207 -55q-136 0 -221.5 79t-85.5 197q0 69 27 120.5t91 92.5t181 62.5t285 21.5v51q0 71 -55.5 122.5t-139.5 51.5q-82 0 -123.5 -33.5t-60.5 -99.5h-164q18 121 109 199t239 78q151 0 249.5 -93t98.5 -225v-614h-112zM676 348
v72q-135 0 -222.5 -10.5t-131.5 -33.5t-60 -50.5t-16 -69.5q0 -49 43 -86t110 -37q118 0 197.5 67t79.5 148zM328 1085q-38 0 -65 27.5t-27 65.5t27 65t65 27t65 -27t27 -65t-27 -65.5t-65 -27.5zM635 1085q-38 0 -65 27.5t-27 65.5t27 65t65 27t65 -27t27 -65t-27 -65.5
t-65 -27.5z" />
    <glyph glyph-name="aring" unicode="&#xe5;" horiz-adv-x="952" 
d="M717 0l-41 102q-28 -32 -70 -57q-83 -55 -207 -55q-136 0 -221.5 79t-85.5 197q0 69 27 120.5t91 92.5t181 62.5t285 21.5v51q0 71 -55.5 122.5t-139.5 51.5q-82 0 -123.5 -33.5t-60.5 -99.5h-164q18 121 109 199t239 78q151 0 249.5 -93t98.5 -225v-614h-112zM676 348
v72q-135 0 -222.5 -10.5t-131.5 -33.5t-60 -50.5t-16 -69.5q0 -49 43 -86t110 -37q118 0 197.5 67t79.5 148zM420 1208q0 -31 20.5 -51t51.5 -20t51 20t20 51t-20 51.5t-51 20.5t-51.5 -20.5t-20.5 -51.5zM328 1208q0 69 47.5 116.5t116.5 47.5t116 -47.5t47 -116.5
t-47 -116.5t-116 -47.5t-116.5 47.5t-47.5 116.5z" />
    <glyph glyph-name="ae" unicode="&#xe6;" horiz-adv-x="1515" 
d="M297 655h-164q18 121 107.5 199t230.5 78q120 0 217 -72q51 -43 70 -72q31 36 76 72q101 72 221 72q165 0 277 -124.5t112 -326.5q0 -17 -6 -59l-4 -23h-615q7 -114 79.5 -190t166.5 -76q126 0 195 113h163q-40 -109 -134 -182.5t-224 -73.5q-132 0 -240 92
q-49 42 -77 92q-34 -52 -86 -92q-112 -92 -263 -92q-134 0 -220.5 76.5t-86.5 179.5q0 55 16 98t55.5 81.5t102.5 63.5t161 39.5t228 14.5v71q0 70 -53.5 122t-130.5 52q-74 0 -115 -34t-59 -99zM819 532h461q-7 114 -72 185t-153 71q-86 0 -157.5 -75t-78.5 -181zM655 348
v51q-127 0 -210 -10.5t-125.5 -32t-58 -47t-15.5 -63.5q0 -41 44 -77t109 -36q113 0 184.5 63t71.5 152z" />
    <glyph glyph-name="ccedilla" unicode="&#xe7;" horiz-adv-x="962" 
d="M358 -338v82l25 -6q28 -4 57 -4q45 0 68.5 18t23.5 43t-24 43.5t-68 18.5q-9 0 -37 -7l-14 -4l62 144q-162 26 -270.5 152t-108.5 319q0 204 124.5 337.5t305.5 133.5q149 0 257 -96.5t142 -241.5h-153q-26 81 -92.5 137.5t-153.5 56.5q-112 0 -194.5 -92t-82.5 -235
t83 -235.5t194 -92.5q86 0 153 56.5t93 138.5h153q-33 -141 -131 -236t-227 -102l-41 -72q62 -8 97.5 -43.5t35.5 -89.5q0 -57 -48 -95t-136 -38q-34 0 -66 4z" />
    <glyph glyph-name="egrave" unicode="&#xe8;" horiz-adv-x="993" 
d="M737 246h164q-51 -112 -148.5 -184t-240.5 -72q-187 0 -313.5 133t-126.5 338q0 101 36 189.5t95.5 149.5t137.5 96.5t161 35.5q84 0 160.5 -33t134 -92t91.5 -146.5t34 -189.5q0 -10 -7 -59l-4 -23h-675q8 -102 88.5 -179t187.5 -77q81 0 137.5 34.5t87.5 78.5zM236 522
h532q-17 116 -92 191t-174 75t-174 -75t-92 -191zM451 1065l-175 246h154l123 -246h-102z" />
    <glyph glyph-name="eacute" unicode="&#xe9;" horiz-adv-x="993" 
d="M737 246h164q-51 -112 -148.5 -184t-240.5 -72q-187 0 -313.5 133t-126.5 338q0 101 36 189.5t95.5 149.5t137.5 96.5t161 35.5q84 0 160.5 -33t134 -92t91.5 -146.5t34 -189.5q0 -10 -7 -59l-4 -23h-675q8 -102 88.5 -179t187.5 -77q81 0 137.5 34.5t87.5 78.5zM236 522
h532q-17 116 -92 191t-174 75t-174 -75t-92 -191zM451 1065l122 246h154l-174 -246h-102z" />
    <glyph glyph-name="ecircumflex" unicode="&#xea;" horiz-adv-x="993" 
d="M737 246h164q-51 -112 -148.5 -184t-240.5 -72q-187 0 -313.5 133t-126.5 338q0 101 36 189.5t95.5 149.5t137.5 96.5t161 35.5q84 0 160.5 -33t134 -92t91.5 -146.5t34 -189.5q0 -10 -7 -59l-4 -23h-675q8 -102 88.5 -179t187.5 -77q81 0 137.5 34.5t87.5 78.5zM236 522
h532q-17 116 -92 191t-174 75t-174 -75t-92 -191zM246 1065l184 246h143l185 -246h-154l-102 143l-103 -143h-153z" />
    <glyph glyph-name="edieresis" unicode="&#xeb;" horiz-adv-x="993" 
d="M737 246h164q-51 -112 -148.5 -184t-240.5 -72q-187 0 -313.5 133t-126.5 338q0 101 36 189.5t95.5 149.5t137.5 96.5t161 35.5q84 0 160.5 -33t134 -92t91.5 -146.5t34 -189.5q0 -10 -7 -59l-4 -23h-675q8 -102 88.5 -179t187.5 -77q81 0 137.5 34.5t87.5 78.5zM236 522
h532q-17 116 -92 191t-174 75t-174 -75t-92 -191zM348 1085q-38 0 -65 27.5t-27 65.5t27 65t65 27t65 -27t27 -65t-27 -65.5t-65 -27.5zM655 1085q-38 0 -65 27.5t-27 65.5t27 65t65 27t65.5 -27t27.5 -65t-27.5 -65.5t-65.5 -27.5z" />
    <glyph glyph-name="igrave" unicode="&#xec;" horiz-adv-x="419" 
d="M133 0v922h154v-922h-154zM154 1065l-174 246h153l123 -246h-102z" />
    <glyph glyph-name="iacute" unicode="&#xed;" horiz-adv-x="419" 
d="M133 0v922h154v-922h-154zM164 1065l123 246h153l-174 -246h-102z" />
    <glyph glyph-name="icircumflex" unicode="&#xee;" horiz-adv-x="419" 
d="M133 0v922h154v-922h-154zM-51 1065l184 246h143l185 -246h-154l-102 143l-103 -143h-153z" />
    <glyph glyph-name="idieresis" unicode="&#xef;" horiz-adv-x="419" 
d="M133 0v922h154v-922h-154zM51 1085q-38 0 -65 27.5t-27 65.5t27 65t65 27t65 -27t27 -65t-27 -65.5t-65 -27.5zM358 1085q-38 0 -65 27.5t-27 65.5t27 65t65 27t65.5 -27t27.5 -65t-27.5 -65.5t-65.5 -27.5z" />
    <glyph glyph-name="eth" unicode="&#xf0;" 
d="M410 993l-72 103l154 102q-60 39 -142 70q-53 17 -74 22l52 123q10 -3 100 -39q131 -59 176 -94l164 113l72 -103l-144 -92q73 -70 127 -166q129 -235 129 -520q0 -242 -122 -382t-318 -140q-185 0 -312.5 130t-127.5 320q0 188 124.5 319.5t295.5 131.5q127 0 225 -62
q45 -28 71 -61q-31 143 -112 254q-43 60 -82 94zM512 133q117 0 202 89t85 218t-85 218.5t-202 89.5t-202 -89.5t-85 -218.5t85 -218t202 -89z" />
    <glyph glyph-name="ntilde" unicode="&#xf1;" horiz-adv-x="1034" 
d="M133 0v922h113l41 -103q29 33 67 55q88 58 199 58q149 0 253.5 -113t104.5 -287v-532h-153v532q0 113 -66.5 184.5t-159.5 71.5q-110 0 -177.5 -70t-67.5 -186v-532h-154zM338 1055h-92q0 112 50.5 173.5t123.5 61.5q42 0 77 -21t55 -45.5t45 -45.5t48 -21
q33 0 57.5 32.5t24.5 90.5h92q0 -112 -50.5 -174t-123.5 -62q-42 0 -77.5 21t-55 46t-44.5 46t-48 21q-33 0 -57.5 -32.5t-24.5 -90.5z" />
    <glyph glyph-name="ograve" unicode="&#xf2;" horiz-adv-x="1003" 
d="M502 133q110 0 193 92.5t83 235.5t-83 235t-193 92q-112 0 -194.5 -92t-82.5 -235t83 -235.5t194 -92.5zM502 -10q-181 0 -305.5 133.5t-124.5 337.5t124.5 337.5t305.5 133.5t305.5 -133.5t124.5 -337.5t-124.5 -337.5t-305.5 -133.5zM451 1065l-175 246h154l123 -246
h-102z" />
    <glyph glyph-name="oacute" unicode="&#xf3;" horiz-adv-x="1003" 
d="M502 133q110 0 193 92.5t83 235.5t-83 235t-193 92q-112 0 -194.5 -92t-82.5 -235t83 -235.5t194 -92.5zM502 -10q-181 0 -305.5 133.5t-124.5 337.5t124.5 337.5t305.5 133.5t305.5 -133.5t124.5 -337.5t-124.5 -337.5t-305.5 -133.5zM461 1065l123 246h153l-174 -246
h-102z" />
    <glyph glyph-name="ocircumflex" unicode="&#xf4;" horiz-adv-x="1003" 
d="M502 133q110 0 193 92.5t83 235.5t-83 235t-193 92q-112 0 -194.5 -92t-82.5 -235t83 -235.5t194 -92.5zM502 -10q-181 0 -305.5 133.5t-124.5 337.5t124.5 337.5t305.5 133.5t305.5 -133.5t124.5 -337.5t-124.5 -337.5t-305.5 -133.5zM246 1065l184 246h143l185 -246
h-154l-102 143l-103 -143h-153z" />
    <glyph glyph-name="otilde" unicode="&#xf5;" horiz-adv-x="1003" 
d="M502 133q110 0 193 92.5t83 235.5t-83 235t-193 92q-112 0 -194.5 -92t-82.5 -235t83 -235.5t194 -92.5zM502 -10q-181 0 -305.5 133.5t-124.5 337.5t124.5 337.5t305.5 133.5t305.5 -133.5t124.5 -337.5t-124.5 -337.5t-305.5 -133.5zM307 1055h-92q0 112 50.5 173.5
t123.5 61.5q42 0 77 -21t55 -45.5t45 -45.5t48 -21q33 0 57.5 32.5t24.5 90.5h92q0 -112 -50.5 -174t-123.5 -62q-42 0 -77.5 21t-55 46t-44.5 46t-48 21q-33 0 -57.5 -32.5t-24.5 -90.5z" />
    <glyph glyph-name="odieresis" unicode="&#xf6;" horiz-adv-x="1003" 
d="M502 133q110 0 193 92.5t83 235.5t-83 235t-193 92q-112 0 -194.5 -92t-82.5 -235t83 -235.5t194 -92.5zM502 -10q-181 0 -305.5 133.5t-124.5 337.5t124.5 337.5t305.5 133.5t305.5 -133.5t124.5 -337.5t-124.5 -337.5t-305.5 -133.5zM348 1085q-38 0 -65 27.5t-27 65.5
t27 65t65 27t65 -27t27 -65t-27 -65.5t-65 -27.5zM655 1085q-38 0 -65 27.5t-27 65.5t27 65t65 27t65.5 -27t27.5 -65t-27.5 -65.5t-65.5 -27.5z" />
    <glyph glyph-name="divide" unicode="&#xf7;" horiz-adv-x="901" 
d="M72 461v133h757v-133h-757zM451 758q-47 0 -75 27.5t-28 74.5t28 75t75 28t74.5 -28t27.5 -75t-27.5 -74.5t-74.5 -27.5zM348 195q0 47 28 74.5t75 27.5t74.5 -27.5t27.5 -74.5t-27.5 -75t-74.5 -28t-75 28t-28 75z" />
    <glyph glyph-name="oslash" unicode="&#xf8;" 
d="M276 317l420 400q-26 22 -49 35q-62 36 -125 36q-111 0 -193.5 -92t-82.5 -235q0 -52 14 -99zM133 0l-92 102l113 103q-21 35 -31 69q-31 91 -31 187q0 204 124.5 337.5t305.5 133.5q121 0 213 -58q42 -23 74 -55l102 103l93 -103l-113 -102q20 -39 31 -70
q30 -101 30 -186q0 -204 -124.5 -337.5t-305.5 -133.5q-126 0 -213 55q-45 25 -73 57zM768 604l-420 -399q22 -22 49 -37q60 -35 125 -35q110 0 193.5 92.5t83.5 235.5q0 41 -17 98q-3 8 -14 45z" />
    <glyph glyph-name="ugrave" unicode="&#xf9;" 
d="M133 389v533h154v-533q0 -113 64.5 -184.5t160.5 -71.5q110 0 178 70t68 186v533h153v-922h-112l-41 102q-24 -31 -68 -57q-83 -55 -198 -55q-149 0 -254 112.5t-105 286.5zM481 1065l-174 246h154l123 -246h-103z" />
    <glyph glyph-name="uacute" unicode="&#xfa;" 
d="M133 389v533h154v-533q0 -113 64.5 -184.5t160.5 -71.5q110 0 178 70t68 186v533h153v-922h-112l-41 102q-24 -31 -68 -57q-83 -55 -198 -55q-149 0 -254 112.5t-105 286.5zM471 1065l123 246h154l-175 -246h-102z" />
    <glyph glyph-name="ucircumflex" unicode="&#xfb;" 
d="M133 389v533h154v-533q0 -113 64.5 -184.5t160.5 -71.5q110 0 178 70t68 186v533h153v-922h-112l-41 102q-24 -31 -68 -57q-83 -55 -198 -55q-149 0 -254 112.5t-105 286.5zM266 1065l185 246h143l184 -246h-153l-103 143l-102 -143h-154z" />
    <glyph glyph-name="udieresis" unicode="&#xfc;" 
d="M133 389v533h154v-533q0 -113 64.5 -184.5t160.5 -71.5q110 0 178 70t68 186v533h153v-922h-112l-41 102q-24 -31 -68 -57q-83 -55 -198 -55q-149 0 -254 112.5t-105 286.5zM369 1085q-38 0 -65.5 27.5t-27.5 65.5t27.5 65t65.5 27t65 -27t27 -65t-27 -65.5t-65 -27.5z
M676 1085q-38 0 -65 27.5t-27 65.5t27 65t65 27t65 -27t27 -65t-27 -65.5t-65 -27.5z" />
    <glyph glyph-name="yacute" unicode="&#xfd;" horiz-adv-x="921" 
d="M174 -328v123q66 0 102 29t62 94l41 102l-359 902h164l277 -707l276 707h164l-399 -1004q-56 -140 -116 -198t-150 -58q-15 0 -43 4zM410 1065l122 246h154l-174 -246h-102z" />
    <glyph glyph-name="thorn" unicode="&#xfe;" horiz-adv-x="1085" 
d="M563 133q119 0 203 92t84 236t-84 235.5t-203 91.5t-203 -91.5t-84 -235.5t84 -236t203 -92zM143 -328v1618h154v-481q23 30 70 61q94 62 206 62q181 0 306 -133.5t125 -337.5t-125 -337.5t-306 -133.5q-114 0 -206 61q-45 30 -70 62v-441h-154z" />
    <glyph glyph-name="ydieresis" unicode="&#xff;" horiz-adv-x="921" 
d="M174 -328v123q66 0 102 29t62 94l41 102l-359 902h164l277 -707l276 707h164l-399 -1004q-56 -140 -116 -198t-150 -58q-15 0 -43 4zM307 1085q-38 0 -65 27.5t-27 65.5t27 65t65 27t65 -27t27 -65t-27 -65.5t-65 -27.5zM614 1085q-38 0 -65 27.5t-27 65.5t27 65t65 27
t65.5 -27t27.5 -65t-27.5 -65.5t-65.5 -27.5z" />
    <glyph glyph-name="Amacron" unicode="&#x100;" horiz-adv-x="1126" 
d="M0 0l492 1290h143l491 -1290h-174l-123 317h-532l-123 -317h-174zM348 461h430l-215 563zM317 1423v123h492v-123h-492z" />
    <glyph glyph-name="amacron" unicode="&#x101;" horiz-adv-x="952" 
d="M717 0l-41 102q-28 -32 -70 -57q-83 -55 -207 -55q-136 0 -221.5 79t-85.5 197q0 69 27 120.5t91 92.5t181 62.5t285 21.5v51q0 71 -55.5 122.5t-139.5 51.5q-82 0 -123.5 -33.5t-60.5 -99.5h-164q18 121 109 199t239 78q151 0 249.5 -93t98.5 -225v-614h-112zM676 348
v72q-135 0 -222.5 -10.5t-131.5 -33.5t-60 -50.5t-16 -69.5q0 -49 43 -86t110 -37q118 0 197.5 67t79.5 148zM236 1065v123h491v-123h-491z" />
    <glyph glyph-name="Abreve" unicode="&#x102;" horiz-adv-x="1126" 
d="M0 0l492 1290h143l491 -1290h-174l-123 317h-532l-123 -317h-174zM348 461h430l-215 563zM317 1659h123q8 -54 42 -88.5t81 -34.5t81 34.5t42 88.5h123q-18 -97 -84 -161t-162 -64t-162 64t-84 161z" />
    <glyph glyph-name="abreve" unicode="&#x103;" horiz-adv-x="952" 
d="M717 0l-41 102q-28 -32 -70 -57q-83 -55 -207 -55q-136 0 -221.5 79t-85.5 197q0 69 27 120.5t91 92.5t181 62.5t285 21.5v51q0 71 -55.5 122.5t-139.5 51.5q-82 0 -123.5 -33.5t-60.5 -99.5h-164q18 121 109 199t239 78q151 0 249.5 -93t98.5 -225v-614h-112zM676 348
v72q-135 0 -222.5 -10.5t-131.5 -33.5t-60 -50.5t-16 -69.5q0 -49 43 -86t110 -37q118 0 197.5 67t79.5 148zM246 1290h123q8 -54 42 -88.5t81 -34.5t80.5 34.5t41.5 88.5h123q-18 -97 -83.5 -161t-161.5 -64t-162 64t-84 161z" />
    <glyph glyph-name="Aogonek" unicode="&#x104;" horiz-adv-x="1126" 
d="M0 0l492 1290h143l491 -1290h-71q-21 -24 -37 -53q-35 -64 -35 -121q0 -38 27 -65t65 -27q23 0 55 4l27 6v-82l-27 -6q-32 -4 -55 -4q-91 0 -142.5 47.5t-51.5 126.5q0 59 34 121q16 29 37 53l-123 317h-532l-123 -317h-174zM348 461h430l-215 563z" />
    <glyph glyph-name="aogonek" unicode="&#x105;" horiz-adv-x="952" 
d="M922 -256v-82l-27 -6q-32 -4 -55 -4q-91 0 -143 47.5t-52 126.5q0 57 35 121q16 29 37 53l-41 102q-28 -32 -70 -57q-83 -55 -207 -55q-136 0 -221.5 79t-85.5 197q0 69 27 120.5t91 92.5t181 62.5t285 21.5v51q0 71 -55.5 122.5t-139.5 51.5q-82 0 -123.5 -33.5
t-60.5 -99.5h-164q18 121 109 199t239 78q151 0 249.5 -93t98.5 -225v-614h-10q-21 -24 -37 -53q-34 -62 -34 -121q0 -38 27 -65t65 -27q23 0 55 4zM676 348v72q-135 0 -222.5 -10.5t-131.5 -33.5t-60 -50.5t-16 -69.5q0 -49 43 -86t110 -37q118 0 197.5 67t79.5 148z" />
    <glyph glyph-name="Cacute" unicode="&#x106;" horiz-adv-x="1290" 
d="M1055 430h174q-57 -194 -201.5 -317t-351.5 -123q-117 0 -227.5 51t-193.5 137.5t-133 209t-50 257.5t50 257.5t133 209t193.5 137.5t227.5 51q199 0 342.5 -123.5t200.5 -316.5h-175q-34 130 -130.5 213.5t-237.5 83.5q-84 0 -163.5 -39t-141 -105.5t-98.5 -163
t-37 -204.5t37 -204.5t98.5 -163t141 -105.5t163.5 -39q148 0 246.5 83t132.5 214zM625 1434l123 245h153l-174 -245h-102z" />
    <glyph glyph-name="cacute" unicode="&#x107;" horiz-adv-x="962" 
d="M748 328h153q-34 -145 -142 -241.5t-257 -96.5q-181 0 -305.5 133.5t-124.5 337.5t124.5 337.5t305.5 133.5q149 0 257 -96.5t142 -241.5h-153q-26 81 -92.5 137.5t-153.5 56.5q-112 0 -194.5 -92t-82.5 -235t83 -235.5t194 -92.5q86 0 153 56.5t93 138.5zM451 1065
l122 246h154l-174 -246h-102z" />
    <glyph glyph-name="Ccircumflex" unicode="&#x108;" horiz-adv-x="1290" 
d="M1055 430h174q-57 -194 -201.5 -317t-351.5 -123q-117 0 -227.5 51t-193.5 137.5t-133 209t-50 257.5t50 257.5t133 209t193.5 137.5t227.5 51q199 0 342.5 -123.5t200.5 -316.5h-175q-34 130 -130.5 213.5t-237.5 83.5q-84 0 -163.5 -39t-141 -105.5t-98.5 -163
t-37 -204.5t37 -204.5t98.5 -163t141 -105.5t163.5 -39q148 0 246.5 83t132.5 214zM420 1434l184 245h144l184 -245h-154l-102 143l-103 -143h-153z" />
    <glyph glyph-name="ccircumflex" unicode="&#x109;" horiz-adv-x="962" 
d="M748 328h153q-34 -145 -142 -241.5t-257 -96.5q-181 0 -305.5 133.5t-124.5 337.5t124.5 337.5t305.5 133.5q149 0 257 -96.5t142 -241.5h-153q-26 81 -92.5 137.5t-153.5 56.5q-112 0 -194.5 -92t-82.5 -235t83 -235.5t194 -92.5q86 0 153 56.5t93 138.5zM246 1065
l184 246h143l185 -246h-154l-102 143l-103 -143h-153z" />
    <glyph glyph-name="Cdotaccent" unicode="&#x10a;" horiz-adv-x="1290" 
d="M1055 430h174q-57 -194 -201.5 -317t-351.5 -123q-117 0 -227.5 51t-193.5 137.5t-133 209t-50 257.5t50 257.5t133 209t193.5 137.5t227.5 51q199 0 342.5 -123.5t200.5 -316.5h-175q-34 130 -130.5 213.5t-237.5 83.5q-84 0 -163.5 -39t-141 -105.5t-98.5 -163
t-37 -204.5t37 -204.5t98.5 -163t141 -105.5t163.5 -39q148 0 246.5 83t132.5 214zM580 1550q0 43 27.5 71t68.5 28q43 0 70.5 -28t27.5 -71q0 -41 -27.5 -68.5t-70.5 -27.5q-41 0 -68.5 27.5t-27.5 68.5z" />
    <glyph glyph-name="cdotaccent" unicode="&#x10b;" horiz-adv-x="962" 
d="M748 328h153q-34 -145 -142 -241.5t-257 -96.5q-181 0 -305.5 133.5t-124.5 337.5t124.5 337.5t305.5 133.5q149 0 257 -96.5t142 -241.5h-153q-26 81 -92.5 137.5t-153.5 56.5q-112 0 -194.5 -92t-82.5 -235t83 -235.5t194 -92.5q86 0 153 56.5t93 138.5zM399 1182
q0 42 27.5 70t69.5 28q43 0 70.5 -27.5t27.5 -70.5q0 -42 -28 -69.5t-70 -27.5q-41 0 -69 28t-28 69z" />
    <glyph glyph-name="Ccaron" unicode="&#x10c;" horiz-adv-x="1290" 
d="M1055 430h174q-57 -194 -201.5 -317t-351.5 -123q-117 0 -227.5 51t-193.5 137.5t-133 209t-50 257.5t50 257.5t133 209t193.5 137.5t227.5 51q199 0 342.5 -123.5t200.5 -316.5h-175q-34 130 -130.5 213.5t-237.5 83.5q-84 0 -163.5 -39t-141 -105.5t-98.5 -163
t-37 -204.5t37 -204.5t98.5 -163t141 -105.5t163.5 -39q148 0 246.5 83t132.5 214zM604 1434l-184 245h153l103 -143l102 143h154l-184 -245h-144z" />
    <glyph glyph-name="ccaron" unicode="&#x10d;" horiz-adv-x="962" 
d="M748 328h153q-34 -145 -142 -241.5t-257 -96.5q-181 0 -305.5 133.5t-124.5 337.5t124.5 337.5t305.5 133.5q149 0 257 -96.5t142 -241.5h-153q-26 81 -92.5 137.5t-153.5 56.5q-112 0 -194.5 -92t-82.5 -235t83 -235.5t194 -92.5q86 0 153 56.5t93 138.5zM430 1065
l-184 246h153l103 -144l102 144h154l-185 -246h-143z" />
    <glyph glyph-name="Dcaron" unicode="&#x10e;" horiz-adv-x="1218" 
d="M328 143h194q118 0 221.5 65t166.5 181t63 256t-63 256t-166.5 181t-221.5 65h-194v-1004zM164 0v1290h358q167 0 308 -83.5t224 -232t83 -329.5t-83 -329.5t-224 -232t-308 -83.5h-358zM553 1434l-184 245h153l103 -143l102 143h154l-185 -245h-143z" />
    <glyph glyph-name="dcaron" unicode="&#x10f;" horiz-adv-x="1179" 
d="M1044 1044l72 246h146l-123 -246h-95zM512 133q119 0 203 92t84 236t-84 235.5t-203 91.5t-203 -91.5t-84 -235.5t84 -236t203 -92zM819 0l-41 102q-29 -33 -69 -57q-83 -55 -207 -55q-181 0 -305.5 133.5t-124.5 337.5t124.5 337.5t305.5 133.5q113 0 207 -62
q38 -25 69 -61v481h154v-1290h-113z" />
    <glyph glyph-name="Dcroat" unicode="&#x110;" horiz-adv-x="1269" 
d="M215 0v563h-184v144h184v583h358q167 0 308 -83.5t224 -232t83 -329.5t-83 -329.5t-224 -232t-308 -83.5h-358zM379 143h194q118 0 221.5 65t166.5 181t63 256t-63 256t-166.5 181t-221.5 65h-194v-440h246v-144h-246v-420z" />
    <glyph glyph-name="dslash" unicode="&#x111;" horiz-adv-x="1034" 
d="M768 0l-41 102q-26 -33 -63 -57q-76 -55 -193 -55q-169 0 -289.5 124t-120.5 306t120.5 306t289.5 124q114 0 193 -57q30 -19 63 -56v256h-256v133h256v164h154v-164h153v-133h-153v-993h-113zM481 133q108 0 187.5 83t79.5 204t-79.5 204t-187.5 83t-187 -83t-79 -204
t79 -204t187 -83z" />
    <glyph glyph-name="Emacron" unicode="&#x112;" horiz-adv-x="1105" 
d="M164 0v1290h819v-143h-655v-410h604v-143h-604v-451h676v-143h-840zM328 1423v123h491v-123h-491z" />
    <glyph glyph-name="emacron" unicode="&#x113;" horiz-adv-x="993" 
d="M737 246h164q-51 -112 -148.5 -184t-240.5 -72q-187 0 -313.5 133t-126.5 338q0 101 36 189.5t95.5 149.5t137.5 96.5t161 35.5q84 0 160.5 -33t134 -92t91.5 -146.5t34 -189.5q0 -10 -7 -59l-4 -23h-675q8 -102 88.5 -179t187.5 -77q81 0 137.5 34.5t87.5 78.5zM236 522
h532q-17 116 -92 191t-174 75t-174 -75t-92 -191zM256 1065v123h492v-123h-492z" />
    <glyph glyph-name="Ebreve" unicode="&#x114;" horiz-adv-x="1105" 
d="M164 0v1290h819v-143h-655v-410h604v-143h-604v-451h676v-143h-840zM338 1659h123q8 -54 42 -88.5t81 -34.5t81 34.5t42 88.5h122q-18 -97 -83.5 -161t-161.5 -64t-162 64t-84 161z" />
    <glyph glyph-name="ebreve" unicode="&#x115;" horiz-adv-x="993" 
d="M737 246h164q-51 -112 -148.5 -184t-240.5 -72q-187 0 -313.5 133t-126.5 338q0 101 36 189.5t95.5 149.5t137.5 96.5t161 35.5q84 0 160.5 -33t134 -92t91.5 -146.5t34 -189.5q0 -10 -7 -59l-4 -23h-675q8 -102 88.5 -179t187.5 -77q81 0 137.5 34.5t87.5 78.5zM236 522
h532q-17 116 -92 191t-174 75t-174 -75t-92 -191zM256 1290h123q8 -54 42 -88.5t81 -34.5t81 34.5t42 88.5h123q-18 -97 -84 -161t-162 -64t-162 64t-84 161z" />
    <glyph glyph-name="Edotaccent" unicode="&#x116;" horiz-adv-x="1105" 
d="M164 0v1290h819v-143h-655v-410h604v-143h-604v-451h676v-143h-840zM481 1550q0 43 28 71t69 28q43 0 70.5 -28t27.5 -71q0 -41 -27.5 -68.5t-70.5 -27.5q-41 0 -69 27.5t-28 68.5z" />
    <glyph glyph-name="edotaccent" unicode="&#x117;" horiz-adv-x="993" 
d="M737 246h164q-51 -112 -148.5 -184t-240.5 -72q-187 0 -313.5 133t-126.5 338q0 101 36 189.5t95.5 149.5t137.5 96.5t161 35.5q84 0 160.5 -33t134 -92t91.5 -146.5t34 -189.5q0 -10 -7 -59l-4 -23h-675q8 -102 88.5 -179t187.5 -77q81 0 137.5 34.5t87.5 78.5zM236 522
h532q-17 116 -92 191t-174 75t-174 -75t-92 -191zM410 1182q0 43 27.5 70.5t68.5 27.5q43 0 70.5 -27.5t27.5 -70.5q0 -42 -28 -69.5t-70 -27.5q-41 0 -68.5 28t-27.5 69z" />
    <glyph glyph-name="Eogonek" unicode="&#x118;" horiz-adv-x="1105" 
d="M164 0v1290h819v-143h-655v-410h604v-143h-604v-451h676v-143q-21 -24 -37 -53q-35 -64 -35 -121q0 -38 27 -65t65 -27q23 0 55 4l27 6v-82l-27 -6q-32 -4 -55 -4q-91 0 -143 47.5t-52 126.5q0 57 35 121q16 29 37 53h-737z" />
    <glyph glyph-name="eogonek" unicode="&#x119;" horiz-adv-x="993" 
d="M686 -256v-82l-27 -6q-32 -4 -55 -4q-91 0 -142.5 47.5t-51.5 126.5q0 78 63 166q-172 12 -286.5 143.5t-114.5 325.5q0 101 36 189.5t95.5 149.5t137.5 96.5t161 35.5q84 0 160.5 -33t134 -92t91.5 -146.5t34 -189.5q0 -10 -7 -59l-4 -23h-675q8 -102 88.5 -179
t187.5 -77q81 0 137.5 34.5t87.5 78.5h164q-45 -100 -125.5 -168t-197.5 -84q-18 -18 -42 -67.5t-24 -100.5q0 -38 27 -65t65 -27q23 0 55 4zM236 522h532q-17 116 -92 191t-174 75t-174 -75t-92 -191z" />
    <glyph glyph-name="Ecaron" unicode="&#x11a;" horiz-adv-x="1105" 
d="M164 0v1290h819v-143h-655v-410h604v-143h-604v-451h676v-143h-840zM512 1434l-184 245h153l103 -143l102 143h154l-185 -245h-143z" />
    <glyph glyph-name="ecaron" unicode="&#x11b;" horiz-adv-x="993" 
d="M737 246h164q-51 -112 -148.5 -184t-240.5 -72q-187 0 -313.5 133t-126.5 338q0 101 36 189.5t95.5 149.5t137.5 96.5t161 35.5q84 0 160.5 -33t134 -92t91.5 -146.5t34 -189.5q0 -10 -7 -59l-4 -23h-675q8 -102 88.5 -179t187.5 -77q81 0 137.5 34.5t87.5 78.5zM236 522
h532q-17 116 -92 191t-174 75t-174 -75t-92 -191zM430 1065l-184 246h153l103 -144l102 144h154l-185 -246h-143z" />
    <glyph glyph-name="Gcircumflex" unicode="&#x11c;" horiz-adv-x="1382" 
d="M1116 0l-41 154q-46 -46 -102 -82q-136 -82 -287 -82q-117 0 -227.5 51t-193.5 137.5t-133 209t-50 257.5t50 257.5t133 209t193.5 137.5t227.5 51q206 0 342 -112t201 -307h-174q-86 276 -369 276q-84 0 -163.5 -39t-141 -105.5t-98.5 -163t-37 -204.5t37 -204.5
t98.5 -163t141 -105.5t163.5 -39q100 0 190.5 53.5t144.5 139t54 176.5h-379v143h543v-645h-123zM420 1434l184 245h144l184 -245h-154l-102 143l-103 -143h-153z" />
    <glyph glyph-name="gcircumflex" unicode="&#x11d;" 
d="M123 -72h153q57 -133 226 -133q115 0 185.5 67t70.5 169v123q-29 -36 -64 -62q-85 -61 -202 -61q-180 0 -300 126t-120 324t120.5 324.5t299.5 126.5q122 0 202 -58q34 -22 64 -55l41 103h112v-891q0 -164 -113.5 -271.5t-295.5 -107.5q-152 0 -250 77t-129 199zM502 174
q118 0 197 85.5t79 221.5t-79 221.5t-197 85.5t-197.5 -85.5t-79.5 -221.5t79.5 -221.5t197.5 -85.5zM266 1065l185 246h143l184 -246h-153l-103 143l-102 -143h-154z" />
    <glyph glyph-name="Gbreve" unicode="&#x11e;" horiz-adv-x="1382" 
d="M1116 0l-41 154q-46 -46 -102 -82q-136 -82 -287 -82q-117 0 -227.5 51t-193.5 137.5t-133 209t-50 257.5t50 257.5t133 209t193.5 137.5t227.5 51q206 0 342 -112t201 -307h-174q-86 276 -369 276q-84 0 -163.5 -39t-141 -105.5t-98.5 -163t-37 -204.5t37 -204.5
t98.5 -163t141 -105.5t163.5 -39q100 0 190.5 53.5t144.5 139t54 176.5h-379v143h543v-645h-123zM430 1659h123q8 -54 42 -88.5t81 -34.5t81 34.5t42 88.5h123q-18 -97 -84 -161t-162 -64t-162 64t-84 161z" />
    <glyph glyph-name="gbreve" unicode="&#x11f;" 
d="M123 -72h153q57 -133 226 -133q115 0 185.5 67t70.5 169v123q-29 -36 -64 -62q-85 -61 -202 -61q-180 0 -300 126t-120 324t120.5 324.5t299.5 126.5q122 0 202 -58q34 -22 64 -55l41 103h112v-891q0 -164 -113.5 -271.5t-295.5 -107.5q-152 0 -250 77t-129 199zM502 174
q118 0 197 85.5t79 221.5t-79 221.5t-197 85.5t-197.5 -85.5t-79.5 -221.5t79.5 -221.5t197.5 -85.5zM266 1290h123q8 -54 42 -88.5t81 -34.5t81 34.5t42 88.5h123q-18 -97 -84 -161t-162 -64t-162 64t-84 161z" />
    <glyph glyph-name="Gdotaccent" unicode="&#x120;" horiz-adv-x="1382" 
d="M1116 0l-41 154q-46 -46 -102 -82q-136 -82 -287 -82q-117 0 -227.5 51t-193.5 137.5t-133 209t-50 257.5t50 257.5t133 209t193.5 137.5t227.5 51q206 0 342 -112t201 -307h-174q-86 276 -369 276q-84 0 -163.5 -39t-141 -105.5t-98.5 -163t-37 -204.5t37 -204.5
t98.5 -163t141 -105.5t163.5 -39q100 0 190.5 53.5t144.5 139t54 176.5h-379v143h543v-645h-123zM580 1550q0 43 27.5 71t68.5 28q43 0 70.5 -28t27.5 -71q0 -41 -27.5 -68.5t-70.5 -27.5q-41 0 -68.5 27.5t-27.5 68.5z" />
    <glyph glyph-name="gdotaccent" unicode="&#x121;" 
d="M123 -72h153q57 -133 226 -133q115 0 185.5 67t70.5 169v123q-29 -36 -64 -62q-85 -61 -202 -61q-180 0 -300 126t-120 324t120.5 324.5t299.5 126.5q122 0 202 -58q34 -22 64 -55l41 103h112v-891q0 -164 -113.5 -271.5t-295.5 -107.5q-152 0 -250 77t-129 199zM502 174
q118 0 197 85.5t79 221.5t-79 221.5t-197 85.5t-197.5 -85.5t-79.5 -221.5t79.5 -221.5t197.5 -85.5zM420 1182q0 43 27.5 70.5t68.5 27.5q43 0 70.5 -27.5t27.5 -70.5q0 -42 -28 -69.5t-70 -27.5q-41 0 -68.5 28t-27.5 69z" />
    <glyph glyph-name="Gcommaaccent" unicode="&#x122;" horiz-adv-x="1382" 
d="M1116 0l-41 154q-46 -46 -102 -82q-136 -82 -287 -82q-117 0 -227.5 51t-193.5 137.5t-133 209t-50 257.5t50 257.5t133 209t193.5 137.5t227.5 51q206 0 342 -112t201 -307h-174q-86 276 -369 276q-84 0 -163.5 -39t-141 -105.5t-98.5 -163t-37 -204.5t37 -204.5
t98.5 -163t141 -105.5t163.5 -39q100 0 190.5 53.5t144.5 139t54 176.5h-379v143h543v-645h-123zM635 -522l-31 41q20 17 37 41q38 52 45 102q-43 0 -72.5 29.5t-29.5 72.5t29.5 73t72.5 30t72.5 -30t29.5 -73q0 -124 -77 -217q-36 -42 -76 -69z" />
    <glyph glyph-name="gcommaaccent" unicode="&#x123;" 
d="M573 1454l31 -41q-20 -17 -37 -41q-39 -58 -45 -102q43 0 73 -30t30 -73t-30 -72.5t-73 -29.5t-72.5 29.5t-29.5 72.5q0 125 76 217q40 47 77 70zM123 -72h153q57 -133 226 -133q115 0 185.5 67t70.5 169v123q-29 -36 -64 -62q-85 -61 -202 -61q-180 0 -300 126t-120 324
t120.5 324.5t299.5 126.5q122 0 202 -58q34 -22 64 -55l41 103h112v-891q0 -164 -113.5 -271.5t-295.5 -107.5q-152 0 -250 77t-129 199zM502 174q118 0 197 85.5t79 221.5t-79 221.5t-197 85.5t-197.5 -85.5t-79.5 -221.5t79.5 -221.5t197.5 -85.5z" />
    <glyph glyph-name="Hcircumflex" unicode="&#x124;" horiz-adv-x="1280" 
d="M164 0v1290h164v-563h624v563h164v-1290h-164v584h-624v-584h-164zM379 1434l184 245h144l184 -245h-154l-102 143l-103 -143h-153z" />
    <glyph glyph-name="hcircumflex" unicode="&#x125;" 
d="M143 0v1290h154v-481q26 33 68 61q94 62 198 62q149 0 254 -113t105 -287v-532h-154v532q0 113 -66 184.5t-159 71.5q-110 0 -178 -70t-68 -186v-532h-154zM276 1434l185 245h143l184 -245h-153l-103 143l-102 -143h-154z" />
    <glyph glyph-name="Hbar" unicode="&#x126;" horiz-adv-x="1382" 
d="M215 0v932h-174v143h174v215h164v-215h625v215h163v-215h174v-143h-174v-932h-163v584h-625v-584h-164zM379 727h625v205h-625v-205z" />
    <glyph glyph-name="hbar" unicode="&#x127;" horiz-adv-x="1054" 
d="M154 0v993h-154v133h154v164h153v-164h256v-133h-256v-276q26 33 68 61q94 62 198 62q149 0 254 -113t105 -287v-440h-154v440q0 113 -66 184.5t-159 71.5q-110 0 -178 -70t-68 -186v-440h-153z" />
    <glyph glyph-name="uni0128" unicode="&#x128;" horiz-adv-x="491" 
d="M164 0v1290h164v-1290h-164zM51 1423h-92q0 112 50.5 174t123.5 62q42 0 77 -21t55 -45.5t45 -45.5t48 -21q33 0 57.5 32.5t24.5 90.5h92q0 -112 -50.5 -174t-123.5 -62q-42 0 -77.5 21t-55 45.5t-44.5 45.5t-48 21q-33 0 -57.5 -32.5t-24.5 -90.5z" />
    <glyph glyph-name="uni0129" unicode="&#x129;" horiz-adv-x="419" 
d="M133 0v922h154v-922h-154zM10 1055h-92q0 112 50.5 173.5t123.5 61.5q42 0 77 -21t55 -45.5t45 -45.5t48 -21q33 0 57.5 32.5t24.5 90.5h93q0 -112 -51 -174t-124 -62q-42 0 -77.5 21t-55 46t-44.5 46t-48 21q-33 0 -57.5 -32.5t-24.5 -90.5z" />
    <glyph glyph-name="Imacron" unicode="&#x12a;" horiz-adv-x="491" 
d="M164 0v1290h164v-1290h-164zM0 1423v123h492v-123h-492z" />
    <glyph glyph-name="imacron" unicode="&#x12b;" horiz-adv-x="419" 
d="M133 0v922h154v-922h-154zM-41 1065v123h492v-123h-492z" />
    <glyph glyph-name="Ibreve" unicode="&#x12c;" horiz-adv-x="491" 
d="M164 0v1290h164v-1290h-164zM0 1659h123q8 -54 42 -88.5t81 -34.5t81 34.5t42 88.5h123q-18 -97 -84 -161t-162 -64t-162 64t-84 161z" />
    <glyph glyph-name="ibreve" unicode="&#x12d;" horiz-adv-x="419" 
d="M133 0v922h154v-922h-154zM-41 1290h123q8 -54 42 -88.5t81 -34.5t81 34.5t42 88.5h123q-18 -97 -84 -161t-162 -64t-162 64t-84 161z" />
    <glyph glyph-name="Iogonek" unicode="&#x12e;" horiz-adv-x="491" 
d="M369 -256v-82l-27 -6q-32 -4 -55 -4q-91 0 -143 47.5t-52 126.5q0 57 35 121q16 29 37 53v1290h164v-1290h-62q-21 -24 -37 -53q-34 -62 -34 -121q0 -38 27 -65t65 -27q23 0 55 4z" />
    <glyph glyph-name="iogonek" unicode="&#x12f;" horiz-adv-x="419" 
d="M338 -256v-82l-27 -6q-32 -4 -55 -4q-91 0 -143 47.5t-52 126.5q0 57 35 121q16 29 37 53v922h154v-922h-51q-21 -24 -37 -53q-35 -64 -35 -121q0 -38 27 -65t65 -27q23 0 55 4zM113 1182q0 43 27.5 70.5t68.5 27.5q43 0 70.5 -27.5t27.5 -70.5q0 -42 -27.5 -69.5
t-70.5 -27.5q-41 0 -68.5 28t-27.5 69z" />
    <glyph glyph-name="Idot" unicode="&#x130;" horiz-adv-x="491" 
d="M164 0v1290h164v-1290h-164zM154 1550q0 43 27.5 71t68.5 28q43 0 70.5 -28t27.5 -71q0 -41 -27.5 -68.5t-70.5 -27.5q-41 0 -68.5 27.5t-27.5 68.5z" />
    <glyph glyph-name="dotlessi" unicode="&#x131;" horiz-adv-x="419" 
d="M133 0v922h154v-922h-154z" />
    <glyph glyph-name="uni0132" unicode="&#x132;" horiz-adv-x="1372" 
d="M164 0v1290h164v-1290h-164zM451 348h163q8 -93 71 -154t155 -61q99 0 162 61t63 154v942h164v-942q0 -148 -111.5 -253t-277.5 -105t-277.5 105t-111.5 253z" />
    <glyph glyph-name="uni0133" unicode="&#x133;" horiz-adv-x="890" 
d="M399 -317v133l15 -6q25 -5 37 -5q70 0 111.5 43.5t41.5 120.5v953h154v-953q0 -134 -78.5 -220.5t-187.5 -86.5q-43 0 -70 10q-9 2 -23 11zM584 1182q0 43 27.5 70.5t68.5 27.5q43 0 70.5 -27.5t27.5 -70.5q0 -42 -28 -69.5t-70 -27.5q-41 0 -68.5 28t-27.5 69zM133 0
v922h154v-922h-154zM113 1182q0 43 27.5 70.5t68.5 27.5q43 0 70.5 -27.5t27.5 -70.5q0 -42 -27.5 -69.5t-70.5 -27.5q-41 0 -68.5 28t-27.5 69z" />
    <glyph glyph-name="Jcircumflex" unicode="&#x134;" horiz-adv-x="942" 
d="M20 348h164q8 -93 71 -154t155 -61q99 0 162 61t63 154v942h164v-942q0 -148 -111.5 -253t-277.5 -105q-167 0 -278.5 105t-111.5 253zM461 1434l184 245h143l185 -245h-154l-102 143l-103 -143h-153z" />
    <glyph glyph-name="jcircumflex" unicode="&#x135;" horiz-adv-x="419" 
d="M-72 -317v133l15 -6q25 -5 37 -5q70 0 111.5 43.5t41.5 120.5v953h154v-953q0 -134 -79 -220.5t-188 -86.5q-42 0 -69 10q-9 2 -23 11zM-51 1065l184 246h143l185 -246h-154l-102 143l-103 -143h-153z" />
    <glyph glyph-name="Kcommaaccent" unicode="&#x136;" horiz-adv-x="1054" 
d="M164 0v1290h164v-635l501 635h195l-502 -635l543 -655h-195l-542 655v-655h-164zM512 -522l-31 41q20 17 37 41q38 52 45 102q-43 0 -72.5 29.5t-29.5 72.5t29.5 73t72.5 30t73 -30t30 -73q0 -123 -78 -217q-36 -42 -76 -69z" />
    <glyph glyph-name="kcommaaccent" unicode="&#x137;" horiz-adv-x="860" 
d="M143 0v1290h154v-809l348 441h174l-348 -430l399 -492h-184l-389 481v-481h-154zM420 -522l-31 41q20 17 37 41q38 52 45 102q-43 0 -72.5 29.5t-29.5 72.5t29.5 73t72.5 30t72.5 -30t29.5 -73q0 -124 -77 -217q-36 -42 -76 -69z" />
    <glyph glyph-name="Lacute" unicode="&#x139;" horiz-adv-x="962" 
d="M164 0v1290h164v-1147h614v-143h-778zM184 1434l123 245h154l-174 -245h-103z" />
    <glyph glyph-name="lacute" unicode="&#x13a;" horiz-adv-x="440" 
d="M143 0v1290h154v-1290h-154zM164 1434l123 245h153l-174 -245h-102z" />
    <glyph glyph-name="Lcommaaccent" unicode="&#x13b;" horiz-adv-x="962" 
d="M164 0v1290h164v-1147h614v-143h-778zM512 -522l-31 41q20 17 37 41q38 52 45 102q-43 0 -72.5 29.5t-29.5 72.5t29.5 73t72.5 30t73 -30t30 -73q0 -123 -78 -217q-36 -42 -76 -69z" />
    <glyph glyph-name="lcommaaccent" unicode="&#x13c;" horiz-adv-x="440" 
d="M143 0v1290h154v-1290h-154zM164 -522l-31 41q20 17 37 41q38 52 45 102q-43 0 -72.5 29.5t-29.5 72.5t29.5 73t72.5 30t72.5 -30t29.5 -73q0 -124 -77 -217q-36 -42 -76 -69z" />
    <glyph glyph-name="Lcaron" unicode="&#x13d;" horiz-adv-x="962" 
d="M461 1044l71 246h144l-123 -246h-92zM164 0v1290h164v-1147h614v-143h-778z" />
    <glyph glyph-name="lcaron" unicode="&#x13e;" horiz-adv-x="542" 
d="M410 1044l71 246h144l-123 -246h-92zM143 0v1290h154v-1290h-154z" />
    <glyph glyph-name="Ldot" unicode="&#x13f;" horiz-adv-x="962" 
d="M164 0v1290h164v-1147h614v-143h-778zM635 680q0 43 27.5 70.5t68.5 27.5q43 0 70.5 -27.5t27.5 -70.5q0 -41 -27.5 -68.5t-70.5 -27.5q-41 0 -68.5 27.5t-27.5 68.5z" />
    <glyph glyph-name="ldot" unicode="&#x140;" horiz-adv-x="716" 
d="M143 0v1290h154v-1290h-154zM481 639q0 43 27.5 70.5t69.5 27.5q43 0 70.5 -27.5t27.5 -70.5q0 -41 -27.5 -68.5t-70.5 -27.5q-41 0 -69 27.5t-28 68.5z" />
    <glyph glyph-name="Lslash" unicode="&#x141;" horiz-adv-x="993" 
d="M195 0v399l-144 -92v164l144 92v727h163v-624l308 204v-163l-308 -205v-359h615v-143h-778z" />
    <glyph glyph-name="lslash" unicode="&#x142;" horiz-adv-x="512" 
d="M174 0v530l-154 -100v154l154 100v606h154v-506l164 107v-154l-164 -106v-631h-154z" />
    <glyph glyph-name="Nacute" unicode="&#x143;" horiz-adv-x="1280" 
d="M164 0v1290h143l645 -973v973h164v-1290h-143l-645 973v-973h-164zM584 1434l123 245h153l-174 -245h-102z" />
    <glyph glyph-name="nacute" unicode="&#x144;" horiz-adv-x="1034" 
d="M133 0v922h113l41 -103q29 33 67 55q88 58 199 58q149 0 253.5 -113t104.5 -287v-532h-153v532q0 113 -66.5 184.5t-159.5 71.5q-110 0 -177.5 -70t-67.5 -186v-532h-154zM471 1065l123 246h154l-175 -246h-102z" />
    <glyph glyph-name="Ncommaaccent" unicode="&#x145;" horiz-adv-x="1280" 
d="M164 0v1290h143l645 -973v973h164v-1290h-143l-645 973v-973h-164zM584 -522l-31 41q20 17 37 41q38 52 45 102q-43 0 -73 29.5t-30 72.5t30 73t73 30t72.5 -30t29.5 -73q0 -123 -78 -217q-37 -44 -75 -69z" />
    <glyph glyph-name="ncommaaccent" unicode="&#x146;" horiz-adv-x="1034" 
d="M133 0v922h113l41 -103q29 33 67 55q88 58 199 58q149 0 253.5 -113t104.5 -287v-532h-153v532q0 113 -66.5 184.5t-159.5 71.5q-110 0 -177.5 -70t-67.5 -186v-532h-154zM471 -522l-31 41q20 17 37 41q38 52 45 102q-43 0 -72.5 29.5t-29.5 72.5t29.5 73t72.5 30t73 -30
t30 -73q0 -123 -78 -217q-36 -42 -76 -69z" />
    <glyph glyph-name="Ncaron" unicode="&#x147;" horiz-adv-x="1280" 
d="M164 0v1290h143l645 -973v973h164v-1290h-143l-645 973v-973h-164zM563 1434l-184 245h153l103 -143l102 143h154l-184 -245h-144z" />
    <glyph glyph-name="ncaron" unicode="&#x148;" horiz-adv-x="1034" 
d="M133 0v922h113l41 -103q29 33 67 55q88 58 199 58q149 0 253.5 -113t104.5 -287v-532h-153v532q0 113 -66.5 184.5t-159.5 71.5q-110 0 -177.5 -70t-67.5 -186v-532h-154zM451 1065l-185 246h154l102 -144l103 144h153l-184 -246h-143z" />
    <glyph glyph-name="napostrophe" unicode="&#x149;" horiz-adv-x="1116" 
d="M215 0v922h113l41 -103q29 33 67 55q88 58 199 58q149 0 253.5 -113t104.5 -287v-532h-153v532q0 113 -66.5 184.5t-159.5 71.5q-110 0 -177.5 -70t-67.5 -186v-532h-154zM51 860l-31 41q20 17 37 41q38 52 45 102q-43 0 -72.5 30t-29.5 73t29.5 72.5t72.5 29.5t73 -29.5
t30 -72.5q0 -123 -78 -217q-38 -45 -76 -70z" />
    <glyph glyph-name="Eng" unicode="&#x14a;" horiz-adv-x="1280" 
d="M164 0v1290h143l645 -973v973h164v-1413q0 -148 -102.5 -248t-255.5 -100t-256 100t-103 248h164q0 -86 54.5 -140t140.5 -54t140 54t54 140v154l-624 942v-973h-164z" />
    <glyph glyph-name="eng" unicode="&#x14b;" horiz-adv-x="1034" 
d="M133 0v922h113l41 -103q29 33 67 55q88 58 199 58q149 0 253.5 -113t104.5 -287v-563q0 -134 -78.5 -220.5t-187.5 -86.5q-43 0 -70 10q-8 2 -22 11v133l14 -6q25 -5 37 -5q70 0 112 43.5t42 120.5v563q0 113 -66.5 184.5t-159.5 71.5q-110 0 -177.5 -70t-67.5 -186v-532
h-154z" />
    <glyph glyph-name="Omacron" unicode="&#x14c;" horiz-adv-x="1351" 
d="M676 1157q-84 0 -163.5 -39t-141 -105.5t-98.5 -163t-37 -204.5t37 -204.5t98.5 -163t141 -105.5t163.5 -39t163.5 39t141 105.5t98.5 163t37 204.5t-37 204.5t-98.5 163t-141 105.5t-163.5 39zM676 1300q117 0 227.5 -51t193.5 -137.5t133 -209t50 -257.5t-50 -257.5
t-133 -209t-193.5 -137.5t-227.5 -51t-227.5 51t-193.5 137.5t-133 209t-50 257.5t50 257.5t133 209t193.5 137.5t227.5 51zM430 1423v123h492v-123h-492z" />
    <glyph glyph-name="omacron" unicode="&#x14d;" horiz-adv-x="1003" 
d="M502 133q110 0 193 92.5t83 235.5t-83 235t-193 92q-112 0 -194.5 -92t-82.5 -235t83 -235.5t194 -92.5zM502 -10q-181 0 -305.5 133.5t-124.5 337.5t124.5 337.5t305.5 133.5t305.5 -133.5t124.5 -337.5t-124.5 -337.5t-305.5 -133.5zM256 1065v123h492v-123h-492z" />
    <glyph glyph-name="Obreve" unicode="&#x14e;" horiz-adv-x="1351" 
d="M676 1157q-84 0 -163.5 -39t-141 -105.5t-98.5 -163t-37 -204.5t37 -204.5t98.5 -163t141 -105.5t163.5 -39t163.5 39t141 105.5t98.5 163t37 204.5t-37 204.5t-98.5 163t-141 105.5t-163.5 39zM676 1300q117 0 227.5 -51t193.5 -137.5t133 -209t50 -257.5t-50 -257.5
t-133 -209t-193.5 -137.5t-227.5 -51t-227.5 51t-193.5 137.5t-133 209t-50 257.5t50 257.5t133 209t193.5 137.5t227.5 51zM430 1659h123q8 -54 42 -88.5t81 -34.5t81 34.5t42 88.5h123q-18 -97 -84 -161t-162 -64t-162 64t-84 161z" />
    <glyph glyph-name="obreve" unicode="&#x14f;" horiz-adv-x="1003" 
d="M502 133q110 0 193 92.5t83 235.5t-83 235t-193 92q-112 0 -194.5 -92t-82.5 -235t83 -235.5t194 -92.5zM502 -10q-181 0 -305.5 133.5t-124.5 337.5t124.5 337.5t305.5 133.5t305.5 -133.5t124.5 -337.5t-124.5 -337.5t-305.5 -133.5zM256 1290h123q8 -54 42 -88.5
t81 -34.5t81 34.5t42 88.5h123q-18 -97 -84 -161t-162 -64t-162 64t-84 161z" />
    <glyph glyph-name="Ohungarumlaut" unicode="&#x150;" horiz-adv-x="1351" 
d="M676 1157q-84 0 -163.5 -39t-141 -105.5t-98.5 -163t-37 -204.5t37 -204.5t98.5 -163t141 -105.5t163.5 -39t163.5 39t141 105.5t98.5 163t37 204.5t-37 204.5t-98.5 163t-141 105.5t-163.5 39zM676 1300q117 0 227.5 -51t193.5 -137.5t133 -209t50 -257.5t-50 -257.5
t-133 -209t-193.5 -137.5t-227.5 -51t-227.5 51t-193.5 137.5t-133 209t-50 257.5t50 257.5t133 209t193.5 137.5t227.5 51zM481 1434l133 245h154l-184 -245h-103zM768 1434l133 245h154l-185 -245h-102z" />
    <glyph glyph-name="ohungarumlaut" unicode="&#x151;" horiz-adv-x="1003" 
d="M502 133q110 0 193 92.5t83 235.5t-83 235t-193 92q-112 0 -194.5 -92t-82.5 -235t83 -235.5t194 -92.5zM502 -10q-181 0 -305.5 133.5t-124.5 337.5t124.5 337.5t305.5 133.5t305.5 -133.5t124.5 -337.5t-124.5 -337.5t-305.5 -133.5zM317 1065l134 246h153l-184 -246
h-103zM604 1065l133 246h154l-184 -246h-103z" />
    <glyph glyph-name="OE" unicode="&#x152;" horiz-adv-x="1720" 
d="M1004 143h604v-143h-922q-118 0 -228.5 50.5t-193 136.5t-132.5 206t-50 252q0 131 50 251t133 206t193.5 137t227.5 51h901v-143h-583v-410h532v-143h-532v-451zM686 143h154v1004h-154q-84 0 -163.5 -38.5t-141 -104.5t-98.5 -160t-37 -199t37 -199t98.5 -160
t141 -104.5t163.5 -38.5z" />
    <glyph glyph-name="oe" unicode="&#x153;" horiz-adv-x="1617" 
d="M1362 246h164q-40 -108 -134.5 -182t-224.5 -74q-146 0 -254 96q-48 39 -84 98q-33 -53 -84 -98q-112 -96 -253 -96q-172 0 -296 134t-124 337t124 337t296 134q139 0 253 -98q48 -42 84 -97q38 58 80 97q110 98 248 98q166 0 277.5 -125.5t111.5 -335.5q0 -17 -6 -59
l-4 -23h-614q7 -107 79.5 -181.5t165.5 -74.5q126 0 195 113zM492 133q105 0 185.5 93t80.5 235t-80.5 234.5t-185.5 92.5t-186 -92.5t-81 -234.5t81 -235t186 -93zM922 522h460q-7 120 -71.5 193t-153.5 73q-87 0 -157.5 -76.5t-77.5 -189.5z" />
    <glyph glyph-name="Racute" unicode="&#x154;" horiz-adv-x="1136" 
d="M164 0v1290h481q160 0 274.5 -112t114.5 -267q0 -186 -143 -295q-63 -49 -141 -73l315 -543h-184l-308 532h-245v-532h-164zM328 676h317q92 0 158.5 69t66.5 166q0 98 -67 167t-158 69h-317v-471zM512 1434l123 245h153l-174 -245h-102z" />
    <glyph glyph-name="racute" unicode="&#x155;" horiz-adv-x="614" 
d="M133 0v922h113l41 -103q29 33 67 55q88 58 199 58h20v-154h-41q-110 0 -177.5 -70t-67.5 -186v-522h-154zM297 1065l123 246h153l-174 -246h-102z" />
    <glyph glyph-name="Rcommaaccent" unicode="&#x156;" horiz-adv-x="1136" 
d="M164 0v1290h481q160 0 274.5 -112t114.5 -267q0 -186 -143 -295q-63 -49 -141 -73l315 -543h-184l-308 532h-245v-532h-164zM328 676h317q92 0 158.5 69t66.5 166q0 98 -67 167t-158 69h-317v-471zM532 -522l-30 41q20 17 37 41q38 52 45 102q-43 0 -73 29.5t-30 72.5
t30 73t73 30t72.5 -30t29.5 -73q0 -123 -78 -217q-36 -42 -76 -69z" />
    <glyph glyph-name="rcommaaccent" unicode="&#x157;" horiz-adv-x="614" 
d="M133 0v922h113l41 -103q29 33 67 55q88 58 199 58h20v-154h-41q-110 0 -177.5 -70t-67.5 -186v-522h-154zM164 -522l-31 41q20 17 37 41q38 52 45 102q-43 0 -72.5 29.5t-29.5 72.5t29.5 73t72.5 30t72.5 -30t29.5 -73q0 -124 -77 -217q-36 -42 -76 -69z" />
    <glyph glyph-name="Rcaron" unicode="&#x158;" horiz-adv-x="1136" 
d="M164 0v1290h481q160 0 274.5 -112t114.5 -267q0 -186 -143 -295q-63 -49 -141 -73l315 -543h-184l-308 532h-245v-532h-164zM328 676h317q92 0 158.5 69t66.5 166q0 98 -67 167t-158 69h-317v-471zM502 1434l-185 245h154l102 -143l103 143h153l-184 -245h-143z" />
    <glyph glyph-name="rcaron" unicode="&#x159;" horiz-adv-x="614" 
d="M133 0v922h113l41 -103q29 33 67 55q88 58 199 58h20v-154h-41q-110 0 -177.5 -70t-67.5 -186v-522h-154zM287 1065l-185 246h154l102 -144l103 144h153l-184 -246h-143z" />
    <glyph glyph-name="Sacute" unicode="&#x15a;" horiz-adv-x="1013" 
d="M82 379h164q0 -118 68 -182t198 -64q126 0 196 57.5t70 147.5q0 64 -38 109t-98.5 71.5t-133.5 48.5t-146 50t-133.5 66.5t-98.5 106.5t-38 162q0 136 121 242t299 106q167 0 283 -113.5t116 -275.5h-163q0 108 -67.5 177t-168.5 69q-111 0 -183.5 -62t-72.5 -143
q0 -64 38 -109t98.5 -71.5t133.5 -48.5t146 -50t133.5 -66.5t98.5 -106.5t38 -162q0 -144 -118 -246t-312 -102q-198 0 -314 108.5t-116 280.5zM461 1434l123 245h153l-174 -245h-102z" />
    <glyph glyph-name="sacute" unicode="&#x15b;" horiz-adv-x="808" 
d="M72 276h153q8 -65 55 -104t130 -39q75 0 119 38.5t44 94.5q0 42 -26.5 68.5t-69 40.5t-93.5 25t-102.5 27.5t-94 42t-69 75.5t-26.5 121q0 109 86.5 187.5t220.5 78.5q144 0 227 -75.5t91 -201.5h-154q-16 133 -164 133q-67 0 -110 -36.5t-43 -85.5q0 -42 26.5 -69
t69 -40.5t93.5 -24.5t102.5 -28t94 -42.5t69 -75t26.5 -120.5q0 -118 -87 -197t-230 -79q-150 0 -240 80t-98 206zM358 1065l123 246h154l-174 -246h-103z" />
    <glyph glyph-name="Scircumflex" unicode="&#x15c;" horiz-adv-x="1013" 
d="M82 379h164q0 -118 68 -182t198 -64q126 0 196 57.5t70 147.5q0 64 -38 109t-98.5 71.5t-133.5 48.5t-146 50t-133.5 66.5t-98.5 106.5t-38 162q0 136 121 242t299 106q167 0 283 -113.5t116 -275.5h-163q0 108 -67.5 177t-168.5 69q-111 0 -183.5 -62t-72.5 -143
q0 -64 38 -109t98.5 -71.5t133.5 -48.5t146 -50t133.5 -66.5t98.5 -106.5t38 -162q0 -144 -118 -246t-312 -102q-198 0 -314 108.5t-116 280.5zM256 1434l184 245h144l184 -245h-154l-102 143l-102 -143h-154z" />
    <glyph glyph-name="scircumflex" unicode="&#x15d;" horiz-adv-x="808" 
d="M72 276h153q8 -65 55 -104t130 -39q75 0 119 38.5t44 94.5q0 42 -26.5 68.5t-69 40.5t-93.5 25t-102.5 27.5t-94 42t-69 75.5t-26.5 121q0 109 86.5 187.5t220.5 78.5q144 0 227 -75.5t91 -201.5h-154q-16 133 -164 133q-67 0 -110 -36.5t-43 -85.5q0 -42 26.5 -69
t69 -40.5t93.5 -24.5t102.5 -28t94 -42.5t69 -75t26.5 -120.5q0 -118 -87 -197t-230 -79q-150 0 -240 80t-98 206zM143 1065l185 246h143l184 -246h-153l-103 143l-102 -143h-154z" />
    <glyph glyph-name="Scedilla" unicode="&#x15e;" horiz-adv-x="1013" 
d="M379 -338v82l24 -6q28 -4 58 -4q45 0 68.5 18t23.5 43t-24 43.5t-68 18.5q-9 0 -37 -7l-14 -4l61 144q-177 17 -283 122.5t-106 266.5h164q0 -118 68 -182t198 -64q126 0 196 57.5t70 147.5q0 64 -38 109t-98.5 71.5t-133.5 48.5t-146 50t-133.5 66.5t-98.5 106.5
t-38 162q0 136 121 242t299 106q167 0 283 -113.5t116 -275.5h-163q0 108 -67.5 177t-168.5 69q-111 0 -183.5 -62t-72.5 -143q0 -64 38 -109t98.5 -71.5t133.5 -48.5t146 -50t133.5 -66.5t98.5 -106.5t38 -162q0 -133 -107.5 -232t-281.5 -116l-31 -72q62 -8 97.5 -43.5
t35.5 -89.5q0 -57 -48 -95t-136 -38q-33 0 -65 4z" />
    <glyph glyph-name="scedilla" unicode="&#x15f;" horiz-adv-x="808" 
d="M276 -338v82l25 -6q28 -4 57 -4q45 0 69 18t24 43t-24.5 43.5t-68.5 18.5q-8 0 -36 -7l-15 -4l62 144q-123 7 -206 88t-91 198h153q8 -65 55 -104t130 -39q75 0 119 38.5t44 94.5q0 42 -26.5 68.5t-69 40.5t-93.5 25t-102.5 27.5t-94 42t-69 75.5t-26.5 121
q0 109 86.5 187.5t220.5 78.5q144 0 227 -75.5t91 -201.5h-154q-16 133 -164 133q-67 0 -110 -36.5t-43 -85.5q0 -42 26.5 -69t69 -40.5t93.5 -24.5t102.5 -28t94 -42.5t69 -75t26.5 -120.5q0 -108 -76 -183.5t-200 -92.5l-31 -72q61 -8 97 -43.5t36 -89.5q0 -57 -48 -95
t-136 -38q-34 0 -66 4z" />
    <glyph glyph-name="Scaron" unicode="&#x160;" horiz-adv-x="1013" 
d="M82 379h164q0 -118 68 -182t198 -64q126 0 196 57.5t70 147.5q0 64 -38 109t-98.5 71.5t-133.5 48.5t-146 50t-133.5 66.5t-98.5 106.5t-38 162q0 136 121 242t299 106q167 0 283 -113.5t116 -275.5h-163q0 108 -67.5 177t-168.5 69q-111 0 -183.5 -62t-72.5 -143
q0 -64 38 -109t98.5 -71.5t133.5 -48.5t146 -50t133.5 -66.5t98.5 -106.5t38 -162q0 -144 -118 -246t-312 -102q-198 0 -314 108.5t-116 280.5zM440 1434l-184 245h154l102 -143l102 143h154l-184 -245h-144z" />
    <glyph glyph-name="scaron" unicode="&#x161;" horiz-adv-x="808" 
d="M72 276h153q8 -65 55 -104t130 -39q75 0 119 38.5t44 94.5q0 42 -26.5 68.5t-69 40.5t-93.5 25t-102.5 27.5t-94 42t-69 75.5t-26.5 121q0 109 86.5 187.5t220.5 78.5q144 0 227 -75.5t91 -201.5h-154q-16 133 -164 133q-67 0 -110 -36.5t-43 -85.5q0 -42 26.5 -69
t69 -40.5t93.5 -24.5t102.5 -28t94 -42.5t69 -75t26.5 -120.5q0 -118 -87 -197t-230 -79q-150 0 -240 80t-98 206zM328 1065l-185 246h154l102 -144l103 144h153l-184 -246h-143z" />
    <glyph glyph-name="Tcommaaccent" unicode="&#x162;" horiz-adv-x="1003" 
d="M420 0v1147h-389v143h942v-143h-389v-1147h-164zM451 -522l-31 41q20 17 37 41q38 52 45 102q-43 0 -73 29.5t-30 72.5t30 73t73 30t72.5 -30t29.5 -73q0 -123 -78 -217q-37 -44 -75 -69z" />
    <glyph glyph-name="tcommaaccent" unicode="&#x163;" horiz-adv-x="655" 
d="M205 297v481h-164v144h72q112 0 112 112v133h133v-245h205v-144h-205v-481q0 -77 42 -120.5t112 -43.5q17 0 37 4l14 6v-133q-11 -7 -22 -10q-30 -10 -70 -10q-109 0 -187.5 86.5t-78.5 220.5zM348 -522l-31 41q20 17 37 41q38 52 45 102q-43 0 -72.5 29.5t-29.5 72.5
t29.5 73t72.5 30t73 -30t30 -73q0 -123 -78 -217q-36 -42 -76 -69z" />
    <glyph glyph-name="Tcaron" unicode="&#x164;" horiz-adv-x="1003" 
d="M420 0v1147h-389v143h942v-143h-389v-1147h-164zM430 1434l-184 245h153l103 -143l102 143h154l-185 -245h-143z" />
    <glyph glyph-name="tcaron" unicode="&#x165;" horiz-adv-x="696" 
d="M563 1044l72 246h143l-123 -246h-92zM205 297v481h-164v144h72q112 0 112 112v133h133v-245h205v-144h-205v-481q0 -77 42 -120.5t112 -43.5q17 0 37 4l14 6v-133q-11 -7 -22 -10q-30 -10 -70 -10q-109 0 -187.5 86.5t-78.5 220.5z" />
    <glyph glyph-name="Tbar" unicode="&#x166;" horiz-adv-x="1003" 
d="M420 0v666h-215v143h215v338h-389v143h942v-143h-389v-338h215v-143h-215v-666h-164z" />
    <glyph glyph-name="tbar" unicode="&#x167;" horiz-adv-x="655" 
d="M205 297v195h-164v143h164v143h-164v144h72q112 0 112 112v133h133v-245h205v-144h-205v-143h205v-143h-205v-195q0 -77 42 -120.5t112 -43.5q17 0 37 4l14 6v-133q-11 -7 -22 -10q-30 -10 -70 -10q-109 0 -187.5 86.5t-78.5 220.5z" />
    <glyph glyph-name="uni0168" unicode="&#x168;" horiz-adv-x="1228" 
d="M143 451v839h164v-839q0 -147 83.5 -232.5t223.5 -85.5t224 85.5t84 232.5v839h163v-839q0 -200 -132.5 -330.5t-338.5 -130.5t-338.5 130.5t-132.5 330.5zM420 1423h-92q0 112 50.5 174t123.5 62q42 0 77 -21t55 -45.5t45 -45.5t48 -21q33 0 57.5 32.5t24.5 90.5h92
q0 -112 -50.5 -174t-123.5 -62q-42 0 -77.5 21t-55 45.5t-44.5 45.5t-48 21q-33 0 -57.5 -32.5t-24.5 -90.5z" />
    <glyph glyph-name="uni0169" unicode="&#x169;" 
d="M133 389v533h154v-533q0 -113 64.5 -184.5t160.5 -71.5q110 0 178 70t68 186v533h153v-922h-112l-41 102q-24 -31 -68 -57q-83 -55 -198 -55q-149 0 -254 112.5t-105 286.5zM328 1055h-92q0 112 50.5 173.5t123.5 61.5q42 0 77 -21t55 -45.5t45 -45.5t48 -21
q33 0 57.5 32.5t24.5 90.5h92q0 -112 -50.5 -174t-123.5 -62q-42 0 -77.5 21t-55 46t-44.5 46t-48 21q-33 0 -57.5 -32.5t-24.5 -90.5z" />
    <glyph glyph-name="Umacron" unicode="&#x16a;" horiz-adv-x="1228" 
d="M143 451v839h164v-839q0 -147 83.5 -232.5t223.5 -85.5t224 85.5t84 232.5v839h163v-839q0 -200 -132.5 -330.5t-338.5 -130.5t-338.5 130.5t-132.5 330.5zM369 1423v123h491v-123h-491z" />
    <glyph glyph-name="umacron" unicode="&#x16b;" 
d="M133 389v533h154v-533q0 -113 64.5 -184.5t160.5 -71.5q110 0 178 70t68 186v533h153v-922h-112l-41 102q-24 -31 -68 -57q-83 -55 -198 -55q-149 0 -254 112.5t-105 286.5zM276 1065v123h492v-123h-492z" />
    <glyph glyph-name="Ubreve" unicode="&#x16c;" horiz-adv-x="1228" 
d="M143 451v839h164v-839q0 -147 83.5 -232.5t223.5 -85.5t224 85.5t84 232.5v839h163v-839q0 -200 -132.5 -330.5t-338.5 -130.5t-338.5 130.5t-132.5 330.5zM369 1659h123q8 -54 41.5 -88.5t80.5 -34.5t81 34.5t42 88.5h123q-18 -97 -84 -161t-162 -64t-161.5 64
t-83.5 161z" />
    <glyph glyph-name="ubreve" unicode="&#x16d;" 
d="M133 389v533h154v-533q0 -113 64.5 -184.5t160.5 -71.5q110 0 178 70t68 186v533h153v-922h-112l-41 102q-24 -31 -68 -57q-83 -55 -198 -55q-149 0 -254 112.5t-105 286.5zM276 1290h123q8 -54 42 -88.5t81 -34.5t81 34.5t42 88.5h123q-18 -97 -84 -161t-162 -64
t-162 64t-84 161z" />
    <glyph glyph-name="Uring" unicode="&#x16e;" horiz-adv-x="1228" 
d="M143 451v839h164v-839q0 -147 83.5 -232.5t223.5 -85.5t224 85.5t84 232.5v839h163v-839q0 -200 -132.5 -330.5t-338.5 -130.5t-338.5 130.5t-132.5 330.5zM543 1567q0 -31 20 -51.5t51 -20.5t51.5 20.5t20.5 51.5t-20.5 51t-51.5 20t-51 -20t-20 -51zM451 1567
q0 69 47 116.5t116 47.5t116.5 -47.5t47.5 -116.5t-47.5 -116.5t-116.5 -47.5t-116 47.5t-47 116.5z" />
    <glyph glyph-name="uring" unicode="&#x16f;" 
d="M133 389v533h154v-533q0 -113 64.5 -184.5t160.5 -71.5q110 0 178 70t68 186v533h153v-922h-112l-41 102q-24 -31 -68 -57q-83 -55 -198 -55q-149 0 -254 112.5t-105 286.5zM451 1208q0 -31 20 -51t51 -20t51.5 20t20.5 51t-20.5 51.5t-51.5 20.5t-51 -20.5t-20 -51.5z
M358 1208q0 69 47.5 116.5t116.5 47.5t116.5 -47.5t47.5 -116.5t-47.5 -116.5t-116.5 -47.5t-116.5 47.5t-47.5 116.5z" />
    <glyph glyph-name="Uhungarumlaut" unicode="&#x170;" horiz-adv-x="1228" 
d="M143 451v839h164v-839q0 -147 83.5 -232.5t223.5 -85.5t224 85.5t84 232.5v839h163v-839q0 -200 -132.5 -330.5t-338.5 -130.5t-338.5 130.5t-132.5 330.5zM420 1434l133 245h154l-185 -245h-102zM707 1434l133 245h153l-184 -245h-102z" />
    <glyph glyph-name="uhungarumlaut" unicode="&#x171;" 
d="M133 389v533h154v-533q0 -113 64.5 -184.5t160.5 -71.5q110 0 178 70t68 186v533h153v-922h-112l-41 102q-24 -31 -68 -57q-83 -55 -198 -55q-149 0 -254 112.5t-105 286.5zM317 1065l134 246h153l-184 -246h-103zM604 1065l133 246h154l-184 -246h-103z" />
    <glyph glyph-name="Uogonek" unicode="&#x172;" horiz-adv-x="1228" 
d="M799 -256v-82l-27 -6q-32 -4 -55 -4q-91 0 -143 47.5t-52 126.5q0 53 31 113q15 27 33 51q-188 8 -315.5 138.5t-127.5 322.5v839h164v-839q0 -147 83.5 -232.5t223.5 -85.5t224 85.5t84 232.5v839h163v-839q0 -187 -107.5 -306t-281.5 -145q-19 -24 -37 -57
q-34 -62 -34 -117q0 -38 27 -65t65 -27q23 0 55 4z" />
    <glyph glyph-name="uogonek" unicode="&#x173;" 
d="M133 389v533h154v-533q0 -113 64.5 -184.5t160.5 -71.5q110 0 178 70t68 186v533h153v-922h-10q-21 -24 -37 -53q-35 -64 -35 -121q0 -38 27.5 -65t65.5 -27q23 0 55 4l27 6v-82l-27 -6q-32 -4 -55 -4q-91 0 -143 47.5t-52 126.5q0 57 35 121q16 29 37 53l-41 102
q-24 -31 -68 -57q-83 -55 -198 -55q-149 0 -254 112.5t-105 286.5z" />
    <glyph glyph-name="Wcircumflex" unicode="&#x174;" horiz-adv-x="1617" 
d="M420 0l-400 1290h175l286 -932l277 932h102l277 -932l286 932h174l-399 -1290h-113l-276 932l-277 -932h-112zM553 1434l184 245h144l184 -245h-154l-102 143l-102 -143h-154z" />
    <glyph glyph-name="wcircumflex" unicode="&#x175;" horiz-adv-x="1310" 
d="M328 0l-308 922h164l215 -656l205 656h103l204 -656l215 656h164l-307 -922h-123l-205 655l-204 -655h-123zM399 1065l185 246h143l184 -246h-153l-103 143l-102 -143h-154z" />
    <glyph glyph-name="Ycircumflex" unicode="&#x176;" 
d="M440 0v502l-420 788h175l327 -614l328 614h174l-420 -788v-502h-164zM266 1434l185 245h143l184 -245h-153l-103 143l-102 -143h-154z" />
    <glyph glyph-name="ycircumflex" unicode="&#x177;" horiz-adv-x="921" 
d="M174 -328v123q66 0 102 29t62 94l41 102l-359 902h164l277 -707l276 707h164l-399 -1004q-56 -140 -116 -198t-150 -58q-15 0 -43 4zM205 1065l184 246h143l185 -246h-154l-102 143l-103 -143h-153z" />
    <glyph glyph-name="Ydieresis" unicode="&#x178;" 
d="M440 0v502l-420 788h175l327 -614l328 614h174l-420 -788v-502h-164zM369 1454q-38 0 -65.5 27t-27.5 65t27.5 65t65.5 27t65 -27t27 -65t-27 -65t-65 -27zM676 1454q-38 0 -65 27t-27 65t27 65t65 27t65 -27t27 -65t-27 -65t-65 -27z" />
    <glyph glyph-name="Zacute" unicode="&#x179;" horiz-adv-x="1013" 
d="M61 0v102l635 1045h-614v143h819v-102l-635 -1045h666v-143h-871zM451 1434l122 245h154l-174 -245h-102z" />
    <glyph glyph-name="zacute" unicode="&#x17a;" horiz-adv-x="798" 
d="M61 0v133l451 645h-451v144h635v-134l-450 -645h471v-143h-656zM338 1065l123 246h153l-174 -246h-102z" />
    <glyph glyph-name="Zdotaccent" unicode="&#x17b;" horiz-adv-x="1013" 
d="M61 0v102l635 1045h-614v143h819v-102l-635 -1045h666v-143h-871zM399 1550q0 43 28 71t69 28q43 0 70.5 -28t27.5 -71q0 -41 -27.5 -68.5t-70.5 -27.5q-41 0 -69 27.5t-28 68.5z" />
    <glyph glyph-name="zdotaccent" unicode="&#x17c;" horiz-adv-x="798" 
d="M61 0v133l451 645h-451v144h635v-134l-450 -645h471v-143h-656zM297 1182q0 43 27.5 70.5t68.5 27.5q43 0 71 -27.5t28 -70.5q0 -41 -28 -69t-71 -28q-41 0 -68.5 28t-27.5 69z" />
    <glyph glyph-name="Zcaron" unicode="&#x17d;" horiz-adv-x="1013" 
d="M61 0v102l635 1045h-614v143h819v-102l-635 -1045h666v-143h-871zM430 1434l-184 245h153l103 -143l102 143h154l-185 -245h-143z" />
    <glyph glyph-name="zcaron" unicode="&#x17e;" horiz-adv-x="798" 
d="M61 0v133l451 645h-451v144h635v-134l-450 -645h471v-143h-656zM317 1065l-184 246h154l102 -144l103 144h153l-184 -246h-144z" />
    <glyph glyph-name="uni018F" unicode="&#x18f;" horiz-adv-x="1331" 
d="M74 686h1022q-4 93 -43.5 180.5t-100 150.5t-139.5 101.5t-158 38.5q-136 0 -227 -69.5t-141 -186.5h-174q28 83 75 153.5t113.5 126.5t157.5 87.5t196 31.5q117 0 228 -51t194 -137.5t133 -209t50 -257.5t-50 -257.5t-133 -209t-194 -137.5t-228 -51q-119 0 -225.5 48.5
t-185.5 133.5t-125.5 208t-46.5 265v29q0 10 2 12zM1085 543h-839q18 -170 134 -290t275 -120q158 0 277.5 118.5t152.5 291.5z" />
    <glyph glyph-name="florin" unicode="&#x192;" horiz-adv-x="655" 
d="M-143 -317l30 133l15 -6q25 -5 37 -5q68 0 112.5 42.5t61.5 121.5l123 666h-144l21 143h143l41 215q25 132 114 219.5t203 87.5q43 0 70 -10l23 -10l-31 -133l-14 4q-24 6 -37 6q-68 0 -112.5 -42.5t-61.5 -121.5l-41 -215h204l-20 -143h-205l-123 -666
q-25 -132 -114 -219.5t-203 -87.5q-43 0 -70 10q-8 2 -22 11z" />
    <glyph glyph-name="uni01A0" unicode="&#x1a0;" horiz-adv-x="1372" 
d="M1044 1157h52q92 0 92 82q0 39 -17 88l-14 35h92q9 -12 21 -39q20 -50 20 -94q0 -70 -43.5 -112t-120.5 -42q43 -53 76 -114q78 -148 78 -316q0 -135 -50 -257.5t-133 -209t-193.5 -137.5t-227.5 -51t-227.5 51t-193.5 137.5t-133 209t-50 257.5t50 257.5t133 209
t193.5 137.5t227.5 51q140 0 268 -71q61 -38 100 -72zM676 133q84 0 163.5 39t141 105.5t98.5 163t37 204.5t-37 204.5t-98.5 163t-141 105.5t-163.5 39t-163.5 -39t-141 -105.5t-98.5 -163t-37 -204.5t37 -204.5t98.5 -163t141 -105.5t163.5 -39z" />
    <glyph glyph-name="uni01A1" unicode="&#x1a1;" horiz-adv-x="1013" 
d="M799 809h30q93 0 93 82q0 39 -17 88l-14 35h92q9 -12 21 -39q20 -50 20 -94q0 -70 -43.5 -112t-120.5 -42q29 -55 35 -72q37 -97 37 -194q0 -204 -124.5 -337.5t-305.5 -133.5t-305.5 133.5t-124.5 337.5t124.5 337.5t305.5 133.5q115 0 217 -62q45 -26 80 -61zM502 133
q110 0 193 92.5t83 235.5t-83 235t-193 92q-112 0 -194.5 -92t-82.5 -235t83 -235.5t194 -92.5z" />
    <glyph glyph-name="uni01AF" unicode="&#x1af;" horiz-adv-x="1290" 
d="M143 451v839h164v-839q0 -147 83.5 -232.5t223.5 -85.5t224 85.5t84 232.5v839h163v-133h31q92 0 92 82q0 42 -16 88l-14 35h92q7 -9 20 -39q21 -53 21 -94q0 -70 -43.5 -112t-120.5 -42q-15 0 -43 4l-19 6v-634q0 -200 -132.5 -330.5t-338.5 -130.5t-338.5 130.5
t-132.5 330.5z" />
    <glyph glyph-name="uni01B0" unicode="&#x1b0;" horiz-adv-x="1095" 
d="M133 389v533h154v-533q0 -113 64.5 -184.5t160.5 -71.5q110 0 178 70t68 186v533h153v-113h31q92 0 92 82q0 42 -16 88l-14 35h92q7 -9 20 -39q21 -53 21 -94q0 -70 -43.5 -112t-120.5 -42q-15 0 -43 4l-19 6v-737h-112l-41 102q-24 -31 -68 -57q-83 -55 -198 -55
q-149 0 -254 112.5t-105 286.5z" />
    <glyph glyph-name="Aringacute" unicode="&#x1fa;" horiz-adv-x="1126" 
d="M0 0l492 1290h10q-44 20 -73.5 58.5t-29.5 95.5q0 69 47.5 116.5t116.5 47.5t116.5 -47.5t47.5 -116.5q0 -57 -29 -95.5t-73 -58.5h10l491 -1290h-174l-123 317h-532l-123 -317h-174zM348 461h430l-215 563zM522 1659l123 246h154l-174 -246h-103zM492 1444
q0 -31 20 -51.5t51 -20.5t51.5 20.5t20.5 51.5t-20.5 51.5t-51.5 20.5t-51 -20.5t-20 -51.5z" />
    <glyph glyph-name="aringacute" unicode="&#x1fb;" horiz-adv-x="952" 
d="M430 1352l123 245h154l-175 -245h-102zM410 1147q0 -31 20 -51.5t51 -20.5t51.5 20.5t20.5 51.5t-20.5 51.5t-51.5 20.5t-51 -20.5t-20 -51.5zM317 1147q0 69 47.5 116.5t116.5 47.5t116.5 -47.5t47.5 -116.5t-47.5 -116.5t-116.5 -47.5t-116.5 47.5t-47.5 116.5zM717 0
l-41 102q-28 -32 -70 -57q-83 -55 -207 -55q-136 0 -221.5 79t-85.5 197q0 69 27 120.5t91 92.5t181 62.5t285 21.5v51q0 71 -55.5 122.5t-139.5 51.5q-82 0 -123.5 -33.5t-60.5 -99.5h-164q18 121 109 199t239 78q151 0 249.5 -93t98.5 -225v-614h-112zM676 348v72
q-135 0 -222.5 -10.5t-131.5 -33.5t-60 -50.5t-16 -69.5q0 -49 43 -86t110 -37q118 0 197.5 67t79.5 148z" />
    <glyph glyph-name="AEacute" unicode="&#x1fc;" horiz-adv-x="1648" 
d="M-61 0l727 1290h860v-143h-574v-410h523v-143h-523v-451h594v-143h-758v328h-481l-184 -328h-184zM389 471h399v676h-20zM840 1434l123 245h153l-174 -245h-102z" />
    <glyph glyph-name="aeacute" unicode="&#x1fd;" horiz-adv-x="1515" 
d="M297 655h-164q18 121 107.5 199t230.5 78q120 0 217 -72q51 -43 70 -72q31 36 76 72q101 72 221 72q165 0 277 -124.5t112 -326.5q0 -17 -6 -59l-4 -23h-615q7 -114 79.5 -190t166.5 -76q126 0 195 113h163q-40 -109 -134 -182.5t-224 -73.5q-132 0 -240 92
q-49 42 -77 92q-34 -52 -86 -92q-112 -92 -263 -92q-134 0 -220.5 76.5t-86.5 179.5q0 55 16 98t55.5 81.5t102.5 63.5t161 39.5t228 14.5v71q0 70 -53.5 122t-130.5 52q-74 0 -115 -34t-59 -99zM819 532h461q-7 114 -72 185t-153 71q-86 0 -157.5 -75t-78.5 -181zM655 348
v51q-127 0 -210 -10.5t-125.5 -32t-58 -47t-15.5 -63.5q0 -41 44 -77t109 -36q113 0 184.5 63t71.5 152zM707 1065l122 246h154l-174 -246h-102z" />
    <glyph glyph-name="Oslashacute" unicode="&#x1fe;" horiz-adv-x="1372" 
d="M307 379l666 655q-30 35 -74 62q-96 61 -213 61q-84 0 -163.5 -39t-141 -105.5t-98.5 -163t-37 -204.5q0 -106 30 -194q12 -40 31 -72zM41 123l154 143q-33 45 -58 105q-55 117 -55 274q0 135 50 257.5t133 209t193.5 137.5t227.5 51q161 0 295 -81q61 -39 104 -82
l144 133l102 -103l-153 -143q34 -53 55 -104q57 -125 57 -275q0 -135 -50 -257.5t-133 -209t-193.5 -137.5t-227.5 -51q-159 0 -295 82q-61 39 -104 82l-144 -134zM1065 911l-666 -655q28 -33 74 -61q98 -62 213 -62q84 0 163.5 39t141 105.5t98.5 163t37 204.5
q0 94 -30 195q-4 12 -9.5 24t-12 25.5t-9.5 21.5zM635 1434l123 245h153l-174 -245h-102z" />
    <glyph glyph-name="oslashacute" unicode="&#x1ff;" 
d="M276 317l420 400q-26 22 -49 35q-62 36 -125 36q-111 0 -193.5 -92t-82.5 -235q0 -52 14 -99zM133 0l-92 102l113 103q-21 35 -31 69q-31 91 -31 187q0 204 124.5 337.5t305.5 133.5q121 0 213 -58q42 -23 74 -55l102 103l93 -103l-113 -102q20 -39 31 -70
q30 -101 30 -186q0 -204 -124.5 -337.5t-305.5 -133.5q-126 0 -213 55q-45 25 -73 57zM768 604l-420 -399q22 -22 49 -37q60 -35 125 -35q110 0 193.5 92.5t83.5 235.5q0 41 -17 98q-3 8 -14 45zM471 1065l123 246h154l-175 -246h-102z" />
    <glyph glyph-name="Scommaaccent" unicode="&#x218;" horiz-adv-x="1013" 
d="M82 379h164q0 -118 68 -182t198 -64q126 0 196 57.5t70 147.5q0 64 -38 109t-98.5 71.5t-133.5 48.5t-146 50t-133.5 66.5t-98.5 106.5t-38 162q0 136 121 242t299 106q167 0 283 -113.5t116 -275.5h-163q0 108 -67.5 177t-168.5 69q-111 0 -183.5 -62t-72.5 -143
q0 -64 38 -109t98.5 -71.5t133.5 -48.5t146 -50t133.5 -66.5t98.5 -106.5t38 -162q0 -144 -118 -246t-312 -102q-198 0 -314 108.5t-116 280.5zM451 -522l-31 41q20 17 37 41q38 52 45 102q-43 0 -73 29.5t-30 72.5t30 73t73 30t72.5 -30t29.5 -73q0 -123 -78 -217
q-37 -44 -75 -69z" />
    <glyph glyph-name="scommaaccent" unicode="&#x219;" horiz-adv-x="808" 
d="M72 276h153q8 -65 55 -104t130 -39q75 0 119 38.5t44 94.5q0 42 -26.5 68.5t-69 40.5t-93.5 25t-102.5 27.5t-94 42t-69 75.5t-26.5 121q0 109 86.5 187.5t220.5 78.5q144 0 227 -75.5t91 -201.5h-154q-16 133 -164 133q-67 0 -110 -36.5t-43 -85.5q0 -42 26.5 -69
t69 -40.5t93.5 -24.5t102.5 -28t94 -42.5t69 -75t26.5 -120.5q0 -118 -87 -197t-230 -79q-150 0 -240 80t-98 206zM348 -522l-31 41q20 17 37 41q38 52 45 102q-43 0 -72.5 29.5t-29.5 72.5t29.5 73t72.5 30t73 -30t30 -73q0 -123 -78 -217q-36 -42 -76 -69z" />
    <glyph glyph-name="uni021A" unicode="&#x21a;" horiz-adv-x="1003" 
d="M420 0v1147h-389v143h942v-143h-389v-1147h-164zM451 -522l-31 41q20 17 37 41q38 52 45 102q-43 0 -73 29.5t-30 72.5t30 73t73 30t72.5 -30t29.5 -73q0 -123 -78 -217q-37 -44 -75 -69z" />
    <glyph glyph-name="uni021B" unicode="&#x21b;" horiz-adv-x="655" 
d="M205 297v481h-164v144h72q112 0 112 112v133h133v-245h205v-144h-205v-481q0 -77 42 -120.5t112 -43.5q17 0 37 4l14 6v-133q-11 -7 -22 -10q-30 -10 -70 -10q-109 0 -187.5 86.5t-78.5 220.5zM348 -522l-31 41q20 17 37 41q38 52 45 102q-43 0 -72.5 29.5t-29.5 72.5
t29.5 73t72.5 30t73 -30t30 -73q0 -123 -78 -217q-36 -42 -76 -69z" />
    <glyph glyph-name="uni0232" unicode="&#x232;" 
d="M440 0v502l-420 788h175l327 -614l328 614h174l-420 -788v-502h-164zM276 1423v123h492v-123h-492z" />
    <glyph glyph-name="uni0233" unicode="&#x233;" horiz-adv-x="921" 
d="M174 -328v123q66 0 102 29t62 94l41 102l-359 902h164l277 -707l276 707h164l-399 -1004q-56 -140 -116 -198t-150 -58q-15 0 -43 4zM215 1065v123h492v-123h-492z" />
    <glyph glyph-name="uni0244" unicode="&#x244;" horiz-adv-x="1351" 
d="M205 451v256h-174v143h174v440h164v-440h614v440h164v-440h174v-143h-174v-256q0 -200 -132.5 -330.5t-338.5 -130.5t-338.5 130.5t-132.5 330.5zM369 707v-256q0 -147 83.5 -232.5t223.5 -85.5t223.5 85.5t83.5 232.5v256h-614z" />
    <glyph glyph-name="uni0259" unicode="&#x259;" horiz-adv-x="972" 
d="M82 532h655q-8 101 -87.5 178.5t-178.5 77.5q-40 0 -75.5 -11t-63.5 -32t-42 -34t-34 -35h-164q51 111 147 183.5t232 72.5q181 0 305.5 -133.5t124.5 -337.5q0 -203 -124 -337t-296 -134t-290.5 128.5t-118.5 332.5q0 31 4 59zM737 399h-501q17 -122 84.5 -194
t160.5 -72t166 75.5t90 190.5z" />
    <glyph glyph-name="uni0289" unicode="&#x289;" horiz-adv-x="1064" 
d="M20 479v146h123v297h154v-297h471v297h154v-297h122v-146h-122v-479h-113l-41 102q-24 -31 -68 -57q-83 -55 -198 -55q-149 0 -254 112.5t-105 286.5v90h-123zM297 479v-90q0 -113 64.5 -184.5t160.5 -71.5q110 0 178 70t68 186v90h-471z" />
    <glyph glyph-name="afii57929" unicode="&#x2bc;" horiz-adv-x="327" 
d="M113 901l-31 41q20 17 37 41q38 52 45 102q-43 0 -73 30t-30 73t30 72.5t73 29.5t72.5 -29.5t29.5 -72.5q0 -123 -78 -217q-39 -46 -75 -70z" />
    <glyph glyph-name="circumflex" unicode="&#x2c6;" horiz-adv-x="634" 
d="M61 1034l185 246h143l184 -246h-153l-103 144l-102 -144h-154z" />
    <glyph glyph-name="caron" unicode="&#x2c7;" horiz-adv-x="634" 
d="M246 1034l-185 246h154l102 -143l103 143h153l-184 -246h-143z" />
    <glyph glyph-name="breve" unicode="&#x2d8;" horiz-adv-x="614" 
d="M61 1280h123q8 -54 42 -88.5t81 -34.5t81 34.5t42 88.5h123q-18 -97 -84 -161t-162 -64t-162 64t-84 161z" />
    <glyph glyph-name="dotaccent" unicode="&#x2d9;" horiz-adv-x="317" 
d="M61 1182q0 42 27.5 70t69.5 28q43 0 70.5 -27.5t27.5 -70.5q0 -42 -28 -69.5t-70 -27.5q-41 0 -69 28t-28 69z" />
    <glyph glyph-name="ring" unicode="&#x2da;" horiz-adv-x="450" 
d="M154 1188q0 -31 20 -51.5t51 -20.5t51.5 20.5t20.5 51.5t-20.5 51.5t-51.5 20.5t-51 -20.5t-20 -51.5zM61 1188q0 69 47.5 116.5t116.5 47.5t116.5 -47.5t47.5 -116.5t-47.5 -116.5t-116.5 -47.5t-116.5 47.5t-47.5 116.5z" />
    <glyph glyph-name="ogonek" unicode="&#x2db;" horiz-adv-x="399" 
d="M338 -256v-82l-27 -6q-32 -4 -55 -4q-91 0 -143 47.5t-52 126.5q0 57 35 121q16 29 37 53h103q-21 -24 -37 -53q-35 -64 -35 -121q0 -38 27 -65t65 -27q23 0 55 4z" />
    <glyph glyph-name="tilde" unicode="&#x2dc;" horiz-adv-x="696" 
d="M154 1055h-93q0 111 50.5 173t124.5 62q42 0 77 -21t55 -45.5t45 -45.5t48 -21q33 0 57.5 32.5t24.5 90.5h92q0 -112 -50.5 -174t-123.5 -62q-42 0 -77.5 21t-55 46t-44.5 46t-48 21q-33 0 -57.5 -32.5t-24.5 -90.5z" />
    <glyph glyph-name="hungarumlaut" unicode="&#x2dd;" horiz-adv-x="696" 
d="M61 1044l134 246h153l-184 -246h-103zM348 1044l133 246h154l-184 -246h-103z" />
    <glyph glyph-name="acutecomb" unicode="&#x301;" horiz-adv-x="0" 
d="M-686 1434l123 245h153l-174 -245h-102z" />
    <glyph glyph-name="uni0309" unicode="&#x309;" horiz-adv-x="378" 
d="M256 1065h-92q15 18 24 39q27 44 27 84q0 47 -27.5 74.5t-74.5 27.5q-13 0 -37 -6l-15 -4v72l29 10q30 10 74 10q68 0 110.5 -40.5t42.5 -102.5q0 -55 -30 -121q-14 -23 -31 -43z" />
    <glyph glyph-name="uni030A" unicode="&#x30a;" horiz-adv-x="0" 
d="M-707 1587q0 -33 22.5 -57.5t59.5 -24.5t59.5 24.5t22.5 57.5t-22.5 57.5t-59.5 24.5t-59.5 -24.5t-22.5 -57.5zM-799 1587q0 71 49 122.5t125 51.5t125 -51.5t49 -122.5t-49 -122.5t-125 -51.5t-125 51.5t-49 122.5z" />
    <glyph glyph-name="uni031B" unicode="&#x31b;" horiz-adv-x="348" 
d="M61 748v71h31q92 0 92 82q0 42 -16 88l-14 35h92q7 -9 20 -39q21 -53 21 -94q0 -70 -43.5 -112t-120.5 -42q-15 0 -43 4z" />
    <glyph glyph-name="uni0323" unicode="&#x323;" horiz-adv-x="317" 
d="M61 -231q0 43 27.5 70.5t69.5 27.5q43 0 70.5 -27.5t27.5 -70.5q0 -41 -28 -69t-70 -28q-41 0 -69 28t-28 69z" />
    <glyph glyph-name="uni0400" unicode="&#x400;" horiz-adv-x="1105" 
d="M164 0v1290h819v-143h-655v-410h604v-143h-604v-451h676v-143h-840zM543 1434l-174 245h153l123 -245h-102z" />
    <glyph glyph-name="afii10023" unicode="&#x401;" horiz-adv-x="1105" 
d="M164 0v1290h819v-143h-655v-410h604v-143h-604v-451h676v-143h-840zM420 1454q-38 0 -65 27t-27 65t27 65t65 27t65 -27t27 -65t-27 -65t-65 -27zM727 1454q-38 0 -65 27t-27 65t27 65t65 27t65 -27t27 -65t-27 -65t-65 -27z" />
    <glyph glyph-name="afii10051" unicode="&#x402;" horiz-adv-x="1259" 
d="M297 0v1147h-297v143h768v-143h-307v-451q40 44 76 66q99 67 221 67q180 0 300 -127t120 -333q0 -222 -120.5 -346.5t-330.5 -124.5v143q119 0 203 92t84 236q0 143 -79.5 230t-197.5 87q-115 0 -195.5 -80t-80.5 -196v-410h-164z" />
    <glyph glyph-name="afii10052" unicode="&#x403;" horiz-adv-x="931" 
d="M164 0v1290h747v-143h-583v-1147h-164zM481 1434l123 245h154l-174 -245h-103z" />
    <glyph glyph-name="afii10053" unicode="&#x404;" horiz-adv-x="1280" 
d="M236 717h522v-144h-522q25 -184 150.5 -312t279.5 -128q147 0 245 76t133 190h175q-57 -178 -202.5 -293.5t-350.5 -115.5q-114 0 -222 51t-190 137.5t-132 209t-50 257.5t50 257.5t132 209t190 137.5t222 51q197 0 340.5 -119.5t201.5 -299.5h-174q-35 115 -132 195.5
t-236 80.5q-154 0 -279.5 -128t-150.5 -312z" />
    <glyph glyph-name="afii10054" unicode="&#x405;" horiz-adv-x="1013" 
d="M82 379h164q0 -118 68 -182t198 -64q126 0 196 57.5t70 147.5q0 64 -38 109t-98.5 71.5t-133.5 48.5t-146 50t-133.5 66.5t-98.5 106.5t-38 162q0 136 121 242t299 106q167 0 283 -113.5t116 -275.5h-163q0 108 -67.5 177t-168.5 69q-111 0 -183.5 -62t-72.5 -143
q0 -64 38 -109t98.5 -71.5t133.5 -48.5t146 -50t133.5 -66.5t98.5 -106.5t38 -162q0 -144 -118 -246t-312 -102q-198 0 -314 108.5t-116 280.5z" />
    <glyph glyph-name="afii10055" unicode="&#x406;" horiz-adv-x="491" 
d="M164 0v1290h164v-1290h-164z" />
    <glyph glyph-name="afii10056" unicode="&#x407;" horiz-adv-x="532" 
d="M164 0v1290h164v-1290h-164zM113 1454q-38 0 -65.5 27t-27.5 65t27.5 65t65.5 27t65 -27t27 -65t-27 -65t-65 -27zM420 1454q-38 0 -65 27t-27 65t27 65t65 27t65 -27t27 -65t-27 -65t-65 -27z" />
    <glyph glyph-name="afii10057" unicode="&#x408;" horiz-adv-x="942" 
d="M20 348h164q8 -93 71 -154t155 -61q99 0 162 61t63 154v942h164v-942q0 -148 -111.5 -253t-277.5 -105q-167 0 -278.5 105t-111.5 253z" />
    <glyph glyph-name="afii10058" unicode="&#x409;" horiz-adv-x="1832" 
d="M-10 0v133h20q100 0 163 65t73 181l71 911h758v-491h287q167 0 288.5 -119t121.5 -281q0 -106 -55.5 -198t-150.5 -146.5t-204 -54.5h-451v1147h-440l-61 -768q-17 -183 -112 -286t-237 -103q-23 0 -51 4zM1075 143h287q101 0 173.5 75t72.5 181t-72.5 181t-173.5 75
h-287v-512z" />
    <glyph glyph-name="afii10059" unicode="&#x40a;" horiz-adv-x="1832" 
d="M164 0v1290h164v-491h583v491h164v-491h287q167 0 288.5 -119t121.5 -281q0 -106 -55.5 -198t-150.5 -146.5t-204 -54.5h-451v655h-583v-655h-164zM1075 143h287q101 0 173.5 75t72.5 181t-72.5 181t-173.5 75h-287v-512z" />
    <glyph glyph-name="afii10060" unicode="&#x40b;" horiz-adv-x="1280" 
d="M297 0v1147h-297v143h768v-143h-307v-451q32 40 74 66q99 67 213 67q169 0 284 -118.5t115 -300.5v-410h-164v410q0 121 -73.5 198.5t-182.5 77.5q-107 0 -186.5 -81t-79.5 -195v-410h-164z" />
    <glyph glyph-name="afii10061" unicode="&#x40c;" horiz-adv-x="1054" 
d="M164 0v1290h164v-635l501 635h195l-502 -635l543 -655h-195l-542 655v-655h-164zM522 1434l123 245h154l-174 -245h-103z" />
    <glyph glyph-name="uni040D" unicode="&#x40d;" horiz-adv-x="1280" 
d="M164 0v1290h164v-983l645 983h143v-1290h-164v983l-645 -983h-143zM594 1434l-174 245h153l123 -245h-102z" />
    <glyph glyph-name="afii10062" unicode="&#x40e;" 
d="M154 0v133l20 -6q28 -4 51 -4q113 0 174 143l41 92l-420 932h185l327 -737l318 737h174l-451 -1024q-67 -151 -138 -218.5t-169 -67.5q-38 0 -76 10q-17 2 -36 10zM276 1659h123q8 -55 44 -89t89 -34t89.5 34t44.5 89h122q-18 -103 -84 -164t-172 -61t-172 61t-84 164z
" />
    <glyph glyph-name="afii10145" unicode="&#x40f;" horiz-adv-x="1259" 
d="M164 0v1290h164v-1147h594v1147h163v-1290h-378v-266h-164v266h-379z" />
    <glyph glyph-name="afii10017" unicode="&#x410;" horiz-adv-x="1126" 
d="M0 0l492 1290h143l491 -1290h-174l-123 317h-532l-123 -317h-174zM348 461h430l-215 563z" />
    <glyph glyph-name="afii10018" unicode="&#x411;" horiz-adv-x="1126" 
d="M164 0v1290h799v-164h-635v-368h338q168 0 278.5 -108.5t110.5 -270.5t-110.5 -270.5t-278.5 -108.5h-502zM328 143h338q101 0 163 64t62 172t-62 171.5t-163 63.5h-338v-471z" />
    <glyph glyph-name="afii10019" unicode="&#x412;" horiz-adv-x="1146" 
d="M164 0v1290h481q159 0 264 -100t105 -248q0 -113 -72 -197q-38 -41 -72 -59q56 -29 97 -70q98 -98 98 -247q0 -146 -118.5 -257.5t-291.5 -111.5h-491zM328 748h317q91 0 153 58t62 136q0 85 -62 145t-153 60h-317v-399zM328 143h327q108 0 177 67.5t69 168.5
q0 92 -71 158.5t-175 66.5h-327v-461z" />
    <glyph glyph-name="afii10020" unicode="&#x413;" horiz-adv-x="931" 
d="M164 0v1290h747v-143h-583v-1147h-164z" />
    <glyph glyph-name="afii10021" unicode="&#x414;" horiz-adv-x="1239" 
d="M0 -266v409h72q39 30 63 64q68 89 80 192l102 891h738v-1147h143v-409h-154v266h-890v-266h-154zM276 143h615v1004h-424l-88 -748q-12 -101 -60 -192q-17 -31 -43 -64z" />
    <glyph glyph-name="afii10022" unicode="&#x415;" horiz-adv-x="1105" 
d="M164 0v1290h819v-143h-655v-410h604v-143h-604v-451h676v-143h-840z" />
    <glyph glyph-name="afii10024" unicode="&#x416;" horiz-adv-x="1515" 
d="M-10 0l502 655l-461 635h194l451 -635v635h164v-635l450 635h195l-461 -635l502 -655h-195l-491 655v-655h-164v655l-492 -655h-194z" />
    <glyph glyph-name="afii10025" unicode="&#x417;" horiz-adv-x="1003" 
d="M51 348h164q18 -97 88.5 -156t188.5 -59q120 0 193 65t73 160t-73 160.5t-193 65.5h-95v143h84q107 0 171.5 60.5t64.5 154.5t-64.5 154.5t-171.5 60.5q-106 0 -171.5 -60t-73.5 -155h-164q18 159 126.5 258.5t282.5 99.5t287 -104.5t113 -253.5q0 -115 -88 -203
q-35 -35 -86 -63q62 -28 106 -70q109 -97 109 -248t-121.5 -259.5t-308.5 -108.5t-301 98.5t-140 259.5z" />
    <glyph glyph-name="afii10026" unicode="&#x418;" horiz-adv-x="1280" 
d="M164 0v1290h164v-983l645 983h143v-1290h-164v983l-645 -983h-143z" />
    <glyph glyph-name="afii10027" unicode="&#x419;" horiz-adv-x="1280" 
d="M164 0v1290h164v-983l645 983h143v-1290h-164v983l-645 -983h-143zM389 1659h123q8 -55 44 -89t89 -34t89 34t44 89h123q-18 -103 -84 -164t-172 -61t-172 61t-84 164z" />
    <glyph glyph-name="afii10028" unicode="&#x41a;" horiz-adv-x="1054" 
d="M164 0v1290h164v-635l501 635h195l-502 -635l543 -655h-195l-542 655v-655h-164z" />
    <glyph glyph-name="afii10029" unicode="&#x41b;" horiz-adv-x="1269" 
d="M-10 0v133h20q100 0 163 65t73 181l71 911h789v-1290h-164v1147h-471l-61 -768q-17 -183 -112 -286t-237 -103q-23 0 -51 4z" />
    <glyph glyph-name="afii10030" unicode="&#x41c;" horiz-adv-x="1556" 
d="M164 0v1290h133l481 -1034l482 1034h133v-1290h-164v870l-400 -870h-102l-399 870v-870h-164z" />
    <glyph glyph-name="afii10031" unicode="&#x41d;" horiz-adv-x="1280" 
d="M164 0v1290h164v-563h624v563h164v-1290h-164v584h-624v-584h-164z" />
    <glyph glyph-name="afii10032" unicode="&#x41e;" horiz-adv-x="1351" 
d="M676 1157q-84 0 -163.5 -39t-141 -105.5t-98.5 -163t-37 -204.5t37 -204.5t98.5 -163t141 -105.5t163.5 -39t163.5 39t141 105.5t98.5 163t37 204.5t-37 204.5t-98.5 163t-141 105.5t-163.5 39zM676 1300q117 0 227.5 -51t193.5 -137.5t133 -209t50 -257.5t-50 -257.5
t-133 -209t-193.5 -137.5t-227.5 -51t-227.5 51t-193.5 137.5t-133 209t-50 257.5t50 257.5t133 209t193.5 137.5t227.5 51z" />
    <glyph glyph-name="afii10033" unicode="&#x41f;" horiz-adv-x="1290" 
d="M164 0v1290h962v-1290h-163v1147h-635v-1147h-164z" />
    <glyph glyph-name="afii10034" unicode="&#x420;" horiz-adv-x="1095" 
d="M164 0v1290h440q109 0 204 -54.5t150.5 -146.5t55.5 -198t-55.5 -198t-150.5 -146.5t-204 -54.5h-276v-492h-164zM328 635h276q101 0 173.5 75t72.5 181t-72.5 181t-173.5 75h-276v-512z" />
    <glyph glyph-name="afii10035" unicode="&#x421;" horiz-adv-x="1290" 
d="M1055 430h174q-57 -194 -201.5 -317t-351.5 -123q-117 0 -227.5 51t-193.5 137.5t-133 209t-50 257.5t50 257.5t133 209t193.5 137.5t227.5 51q199 0 342.5 -123.5t200.5 -316.5h-175q-34 130 -130.5 213.5t-237.5 83.5q-84 0 -163.5 -39t-141 -105.5t-98.5 -163
t-37 -204.5t37 -204.5t98.5 -163t141 -105.5t163.5 -39q148 0 246.5 83t132.5 214z" />
    <glyph glyph-name="afii10036" unicode="&#x422;" horiz-adv-x="1003" 
d="M420 0v1147h-389v143h942v-143h-389v-1147h-164z" />
    <glyph glyph-name="afii10037" unicode="&#x423;" 
d="M154 0v133l20 -6q28 -4 51 -4q113 0 174 143l41 92l-420 932h185l327 -737l318 737h174l-451 -1024q-67 -151 -138 -218.5t-169 -67.5q-38 0 -76 10q-17 2 -36 10z" />
    <glyph glyph-name="afii10038" unicode="&#x424;" horiz-adv-x="1474" 
d="M655 -10v174q-272 17 -422.5 153t-150.5 349t150.5 348.5t422.5 152.5v123h164v-123q272 -17 423 -152.5t151 -348.5t-151 -349t-423 -153v-174h-164zM655 307v717q-188 -7 -298.5 -107t-110.5 -251t110.5 -251.5t298.5 -107.5zM819 1024v-717q188 7 299 107.5t111 251.5
t-110.5 251t-299.5 107z" />
    <glyph glyph-name="afii10039" unicode="&#x425;" horiz-adv-x="1064" 
d="M20 0l420 655l-399 635h184l307 -491l308 491h184l-399 -635l419 -655h-194l-318 512l-317 -512h-195z" />
    <glyph glyph-name="afii10040" unicode="&#x426;" horiz-adv-x="1269" 
d="M164 0v1290h164v-1147h594v1147h163v-1147h144v-409h-154v266h-911z" />
    <glyph glyph-name="afii10041" unicode="&#x427;" horiz-adv-x="1208" 
d="M881 0v481q-41 -25 -95 -47q-112 -45 -223 -45q-193 0 -306.5 115t-113.5 315v471h164v-471q0 -138 70.5 -212.5t195.5 -74.5q101 0 215 46q55 23 93 47v665h163v-1290h-163z" />
    <glyph glyph-name="afii10042" unicode="&#x428;" horiz-adv-x="1720" 
d="M164 0v1290h164v-1147h450v1147h164v-1147h451v1147h163v-1290h-1392z" />
    <glyph glyph-name="afii10043" unicode="&#x429;" horiz-adv-x="1740" 
d="M164 0v1290h164v-1147h450v1147h164v-1147h451v1147h163v-1147h144v-409h-154v266h-1382z" />
    <glyph glyph-name="afii10044" unicode="&#x42a;" horiz-adv-x="1228" 
d="M307 0v1147h-307v143h471v-491h287q167 0 288 -119t121 -281t-121 -280.5t-288 -118.5h-451zM471 143h287q101 0 173.5 75t72.5 181t-72.5 181t-173.5 75h-287v-512z" />
    <glyph glyph-name="afii10045" unicode="&#x42b;" horiz-adv-x="1495" 
d="M1167 0v1290h164v-1290h-164zM164 0v1290h164v-491h266q167 0 288.5 -119t121.5 -281q0 -106 -55.5 -198t-150.5 -146.5t-204 -54.5h-430zM328 143h266q101 0 173.5 75t72.5 181t-72.5 181t-173.5 75h-266v-512z" />
    <glyph glyph-name="afii10046" unicode="&#x42c;" horiz-adv-x="1085" 
d="M164 0v1290h164v-491h286q167 0 288.5 -119t121.5 -281q0 -106 -55.5 -198t-150.5 -146.5t-204 -54.5h-450zM328 143h286q101 0 173.5 75t72.5 181t-72.5 181t-173.5 75h-286v-512z" />
    <glyph glyph-name="afii10047" unicode="&#x42d;" horiz-adv-x="1269" 
d="M51 399h174q31 -112 132.5 -189t246.5 -77q154 0 279.5 128t150.5 312h-522v144h522q-25 184 -150.5 312t-279.5 128q-138 0 -237.5 -80.5t-130.5 -195.5h-175q57 180 201.5 299.5t341.5 119.5q114 0 222 -51t190 -137.5t132 -209t50 -257.5t-50 -257.5t-132 -209
t-190 -137.5t-222 -51q-205 0 -350.5 115.5t-202.5 293.5z" />
    <glyph glyph-name="afii10048" unicode="&#x42e;" horiz-adv-x="1720" 
d="M164 0v1290h164v-583h194q25 259 185.5 426t377.5 167q111 0 213.5 -48.5t180 -133t124 -208.5t46.5 -265t-46.5 -265t-124 -208.5t-180 -133t-213.5 -48.5q-216 0 -377 163t-186 410h-194v-563h-164zM1085 133q77 0 149 36t128 100.5t89.5 162.5t33.5 213t-33.5 213
t-89.5 162.5t-128 100.5t-149 36t-149 -36t-127.5 -100.5t-89 -162.5t-33.5 -213t33.5 -213t89 -162.5t127.5 -100.5t149 -36z" />
    <glyph glyph-name="afii10049" unicode="&#x42f;" horiz-adv-x="1136" 
d="M61 0l328 543q-79 24 -143 73q-144 110 -144 295q0 154 114.5 266.5t275.5 112.5h481v-1290h-164v532h-244l-319 -532h-185zM492 676h317v471h-317q-94 0 -160 -69t-66 -167t66 -166.5t160 -68.5z" />
    <glyph glyph-name="afii10065" unicode="&#x430;" horiz-adv-x="952" 
d="M717 0l-41 102q-28 -32 -70 -57q-83 -55 -207 -55q-136 0 -221.5 79t-85.5 197q0 69 27 120.5t91 92.5t181 62.5t285 21.5v51q0 71 -55.5 122.5t-139.5 51.5q-82 0 -123.5 -33.5t-60.5 -99.5h-164q18 121 109 199t239 78q151 0 249.5 -93t98.5 -225v-614h-112zM676 348
v72q-135 0 -222.5 -10.5t-131.5 -33.5t-60 -50.5t-16 -69.5q0 -49 43 -86t110 -37q118 0 197.5 67t79.5 148z" />
    <glyph glyph-name="afii10066" unicode="&#x431;" horiz-adv-x="1024" 
d="M840 1311v-144q-165 -9 -276 -37t-179.5 -82.5t-102 -128t-46.5 -182.5q33 45 75 76q102 78 232 78q80 0 154.5 -35t130.5 -94.5t90 -144t34 -177.5q0 -190 -121.5 -320t-298.5 -130q-89 0 -168.5 38.5t-140 109t-96 181t-35.5 244.5q0 204 37 338.5t126.5 223.5t229 131
t355.5 55zM532 133q109 0 188 86.5t79 220.5t-79 221t-188 87q-110 0 -193 -90t-83 -218t83 -217.5t193 -89.5z" />
    <glyph glyph-name="afii10067" unicode="&#x432;" horiz-adv-x="911" 
d="M133 0v922h410q115 0 190.5 -74t75.5 -182q0 -85 -57 -142q-24 -23 -56 -43q28 -12 72 -47q72 -68 72 -168q0 -117 -75 -191.5t-192 -74.5h-440zM287 543h235q60 0 96.5 32t36.5 80q0 55 -36 89t-97 34h-235v-235zM287 143h266q54 0 93.5 39.5t39.5 93.5q0 47 -39.5 85
t-93.5 38h-266v-256z" />
    <glyph glyph-name="afii10068" unicode="&#x433;" horiz-adv-x="757" 
d="M133 0v922h604v-144h-450v-778h-154z" />
    <glyph glyph-name="afii10069" unicode="&#x434;" horiz-adv-x="1003" 
d="M0 -225v368h51q27 19 55 54q58 65 68 151l62 574h604v-779h123v-368h-144v225h-676v-225h-143zM236 143h450v635h-313l-45 -430q-7 -83 -52 -151q-33 -47 -40 -54z" />
    <glyph glyph-name="afii10070" unicode="&#x435;" horiz-adv-x="993" 
d="M737 246h164q-51 -112 -148.5 -184t-240.5 -72q-187 0 -313.5 133t-126.5 338q0 101 36 189.5t95.5 149.5t137.5 96.5t161 35.5q84 0 160.5 -33t134 -92t91.5 -146.5t34 -189.5q0 -10 -7 -59l-4 -23h-675q8 -102 88.5 -179t187.5 -77q81 0 137.5 34.5t87.5 78.5zM236 522
h532q-17 116 -92 191t-174 75t-174 -75t-92 -191z" />
    <glyph glyph-name="afii10072" unicode="&#x436;" horiz-adv-x="1218" 
d="M-10 0l368 492l-327 430h174l327 -441v441h154v-441l328 441h174l-328 -430l369 -492h-185l-358 481v-481h-154v481l-358 -481h-184z" />
    <glyph glyph-name="afii10073" unicode="&#x437;" horiz-adv-x="788" 
d="M51 276h154q8 -65 54.5 -104t129.5 -39q75 0 119.5 38.5t44.5 94.5t-45.5 94.5t-118.5 38.5h-82v144h82q62 0 102.5 34.5t40.5 88.5t-40.5 88t-102.5 34q-81 0 -123.5 -37t-50.5 -96h-154q8 126 93 201.5t235 75.5q128 0 212.5 -79t84.5 -187q0 -87 -57 -148
q-26 -29 -56 -47q39 -22 66 -49q68 -68 68 -156q0 -118 -87.5 -197t-230.5 -79q-150 0 -240 80t-98 206z" />
    <glyph glyph-name="afii10074" unicode="&#x438;" 
d="M133 0v922h154v-686l471 686h153v-922h-153v686l-471 -686h-154z" />
    <glyph glyph-name="afii10075" unicode="&#x439;" 
d="M133 0v922h154v-686l471 686h153v-922h-153v686l-471 -686h-154zM276 1290h123q8 -54 42 -88.5t81 -34.5t81 34.5t42 88.5h123q-18 -97 -84 -161t-162 -64t-162 64t-84 161z" />
    <glyph glyph-name="afii10076" unicode="&#x43a;" horiz-adv-x="849" 
d="M133 0v922h154v-441l348 441h174l-348 -430l399 -492h-184l-389 481v-481h-154z" />
    <glyph glyph-name="afii10077" unicode="&#x43b;" horiz-adv-x="983" 
d="M-10 0v133h20q149 0 164 164l51 625h625v-922h-154v788h-338l-30 -491q-10 -146 -84.5 -226.5t-192.5 -80.5q-15 0 -43 4z" />
    <glyph glyph-name="afii10078" unicode="&#x43c;" horiz-adv-x="1228" 
d="M133 0v922h133l348 -717l349 717h133v-922h-154v573l-276 -573h-103l-276 573v-573h-154z" />
    <glyph glyph-name="afii10079" unicode="&#x43d;" 
d="M133 0v922h154v-379h471v379h153v-922h-153v399h-471v-399h-154z" />
    <glyph glyph-name="afii10080" unicode="&#x43e;" horiz-adv-x="1003" 
d="M502 133q110 0 193 92.5t83 235.5t-83 235t-193 92q-112 0 -194.5 -92t-82.5 -235t83 -235.5t194 -92.5zM502 -10q-181 0 -305.5 133.5t-124.5 337.5t124.5 337.5t305.5 133.5t305.5 -133.5t124.5 -337.5t-124.5 -337.5t-305.5 -133.5z" />
    <glyph glyph-name="afii10081" unicode="&#x43f;" 
d="M133 0v922h778v-922h-153v778h-471v-778h-154z" />
    <glyph glyph-name="afii10082" unicode="&#x440;" horiz-adv-x="1064" 
d="M553 133q119 0 203 92t84 236t-84 235.5t-203 91.5t-203 -91.5t-84 -235.5t84 -236t203 -92zM133 -328v1250h113l41 -103q27 30 69 55q88 58 207 58q181 0 305.5 -133.5t124.5 -337.5t-124.5 -337.5t-305.5 -133.5q-115 0 -207 61q-43 29 -69 62v-441h-154z" />
    <glyph glyph-name="afii10083" unicode="&#x441;" horiz-adv-x="962" 
d="M748 328h153q-34 -145 -142 -241.5t-257 -96.5q-181 0 -305.5 133.5t-124.5 337.5t124.5 337.5t305.5 133.5q149 0 257 -96.5t142 -241.5h-153q-26 81 -92.5 137.5t-153.5 56.5q-112 0 -194.5 -92t-82.5 -235t83 -235.5t194 -92.5q86 0 153 56.5t93 138.5z" />
    <glyph glyph-name="afii10084" unicode="&#x442;" horiz-adv-x="788" 
d="M317 0v778h-286v144h727v-144h-287v-778h-154z" />
    <glyph glyph-name="afii10085" unicode="&#x443;" horiz-adv-x="921" 
d="M174 -328v123q66 0 102 29t62 94l41 102l-359 902h164l277 -707l276 707h164l-399 -1004q-56 -140 -116 -198t-150 -58q-15 0 -43 4z" />
    <glyph glyph-name="afii10086" unicode="&#x444;" horiz-adv-x="1443" 
d="M799 707v-492q18 -22 49 -47q65 -45 135 -45q106 0 171 84.5t65 253.5t-65 253.5t-171 84.5q-68 0 -135 -47q-30 -23 -49 -45zM645 -328v389q-23 -20 -55 -36q-68 -35 -139 -35q-160 0 -269.5 127.5t-109.5 343.5t109.5 343.5t269.5 127.5q67 0 139 -37q25 -12 55 -35
v430h154v-430q30 23 55 35q72 37 139 37q160 0 269.5 -127.5t109.5 -343.5t-109.5 -343.5t-269.5 -127.5q-71 0 -139 35q-32 16 -55 36v-389h-154zM645 215v492q-19 22 -49 45q-67 47 -135 47q-106 0 -171 -84.5t-65 -253.5t65 -253.5t171 -84.5q70 0 135 45q32 24 49 47z
" />
    <glyph glyph-name="afii10087" unicode="&#x445;" horiz-adv-x="839" 
d="M0 0l328 471l-308 451h175l225 -338l225 338h174l-307 -451l328 -471h-174l-246 358l-246 -358h-174z" />
    <glyph glyph-name="afii10088" unicode="&#x446;" horiz-adv-x="1054" 
d="M133 0v922h154v-779h450v779h154v-779h123v-368h-144v225h-737z" />
    <glyph glyph-name="afii10089" unicode="&#x447;" horiz-adv-x="983" 
d="M696 0v338q-44 -23 -71 -31q-91 -31 -195 -31q-141 0 -229 92.5t-88 245.5v308h153v-308q0 -87 56.5 -140.5t148.5 -53.5q78 0 158 35q33 13 67 37v430h154v-922h-154z" />
    <glyph glyph-name="afii10090" unicode="&#x448;" horiz-adv-x="1402" 
d="M133 0v922h154v-779h338v779h153v-779h338v779h154v-922h-1137z" />
    <glyph glyph-name="afii10091" unicode="&#x449;" horiz-adv-x="1433" 
d="M133 0v922h154v-779h338v779h153v-779h338v779h154v-779h123v-368h-144v225h-1116z" />
    <glyph glyph-name="afii10092" unicode="&#x44a;" horiz-adv-x="972" 
d="M225 0v788h-225v134h379v-328h225q146 0 232 -82.5t86 -214.5t-86 -214.5t-232 -82.5h-379zM379 143h225q68 0 116 46t48 108t-48 108t-116 46h-225v-308z" />
    <glyph glyph-name="afii10093" unicode="&#x44b;" horiz-adv-x="1239" 
d="M952 0v922h154v-922h-154zM133 0v922h154v-328h205q146 0 231.5 -82.5t85.5 -214.5t-85.5 -214.5t-231.5 -82.5h-359zM287 143h205q68 0 115.5 46t47.5 108t-47.5 108t-115.5 46h-205v-308z" />
    <glyph glyph-name="afii10094" unicode="&#x44c;" horiz-adv-x="880" 
d="M133 0v922h154v-328h225q146 0 231.5 -82.5t85.5 -214.5t-85.5 -214.5t-231.5 -82.5h-379zM287 143h225q70 0 117 43t47 111q0 62 -48 108t-116 46h-225v-308z" />
    <glyph glyph-name="afii10095" unicode="&#x44d;" horiz-adv-x="942" 
d="M51 307h154q25 -75 88.5 -124.5t157.5 -49.5q98 0 175 74.5t89 181.5h-336v133h338q-18 120 -88.5 193t-177.5 73q-94 0 -157.5 -49.5t-88.5 -124.5h-154q29 135 137.5 226.5t262.5 91.5q172 0 295.5 -134t123.5 -337t-123.5 -337t-295.5 -134q-154 0 -262.5 91
t-137.5 226z" />
    <glyph glyph-name="afii10096" unicode="&#x44e;" horiz-adv-x="1341" 
d="M133 0v922h154v-400h164q25 178 140 294t269 116q80 0 154.5 -35t131 -96.5t90.5 -150t34 -189.5t-34 -189.5t-90.5 -150t-131 -96.5t-154.5 -35q-154 0 -269 114t-140 285h-164v-389h-154zM860 133q98 0 177 93.5t79 234.5t-79 234t-177 93t-177 -93t-79 -234t79 -234.5
t177 -93.5z" />
    <glyph glyph-name="afii10097" unicode="&#x44f;" horiz-adv-x="942" 
d="M72 0l215 348q-50 14 -92 53q-93 81 -93 224q0 132 86 214.5t232 82.5h389v-922h-154v328h-204l-205 -328h-174zM420 471h235v307h-235q-68 0 -116 -45.5t-48 -107.5t48 -108t116 -46z" />
    <glyph glyph-name="uni0450" unicode="&#x450;" horiz-adv-x="993" 
d="M737 246h164q-51 -112 -148.5 -184t-240.5 -72q-187 0 -313.5 133t-126.5 338q0 101 36 189.5t95.5 149.5t137.5 96.5t161 35.5q84 0 160.5 -33t134 -92t91.5 -146.5t34 -189.5q0 -10 -7 -59l-4 -23h-675q8 -102 88.5 -179t187.5 -77q81 0 137.5 34.5t87.5 78.5zM236 522
h532q-17 116 -92 191t-174 75t-174 -75t-92 -191zM451 1065l-175 246h154l123 -246h-102z" />
    <glyph glyph-name="afii10071" unicode="&#x451;" horiz-adv-x="993" 
d="M737 246h164q-51 -112 -148.5 -184t-240.5 -72q-187 0 -313.5 133t-126.5 338q0 101 36 189.5t95.5 149.5t137.5 96.5t161 35.5q84 0 160.5 -33t134 -92t91.5 -146.5t34 -189.5q0 -10 -7 -59l-4 -23h-675q8 -102 88.5 -179t187.5 -77q81 0 137.5 34.5t87.5 78.5zM236 522
h532q-17 116 -92 191t-174 75t-174 -75t-92 -191zM348 1085q-38 0 -65 27.5t-27 65.5t27 65t65 27t65 -27t27 -65t-27 -65.5t-65 -27.5zM655 1085q-38 0 -65 27.5t-27 65.5t27 65t65 27t65.5 -27t27.5 -65t-27.5 -65.5t-65.5 -27.5z" />
    <glyph glyph-name="afii10099" unicode="&#x452;" horiz-adv-x="1013" 
d="M154 0v993h-154v133h154v164h153v-164h256v-133h-256v-276q26 33 68 61q94 62 198 62q159 0 264 -121t105 -330q0 -239 -108 -365t-291 -126v143q106 0 175.5 89.5t69.5 258.5q0 140 -69 223.5t-166 83.5q-110 0 -178 -70t-68 -186v-440h-153z" />
    <glyph glyph-name="afii10100" unicode="&#x453;" horiz-adv-x="757" 
d="M133 0v922h604v-144h-450v-778h-154zM379 1065l123 246h153l-174 -246h-102z" />
    <glyph glyph-name="afii10101" unicode="&#x454;" horiz-adv-x="952" 
d="M225 522h338v-133h-336q12 -107 89.5 -181.5t175.5 -74.5q94 0 157 49.5t88 124.5h154q-34 -137 -139 -227t-260 -90q-172 0 -296 134t-124 337t124 337t296 134q155 0 260 -90.5t139 -227.5h-154q-25 75 -88 124.5t-157 49.5q-107 0 -178 -73.5t-89 -192.5z" />
    <glyph glyph-name="afii10102" unicode="&#x455;" horiz-adv-x="808" 
d="M72 276h153q8 -65 55 -104t130 -39q75 0 119 38.5t44 94.5q0 42 -26.5 68.5t-69 40.5t-93.5 25t-102.5 27.5t-94 42t-69 75.5t-26.5 121q0 109 86.5 187.5t220.5 78.5q144 0 227 -75.5t91 -201.5h-154q-16 133 -164 133q-67 0 -110 -36.5t-43 -85.5q0 -42 26.5 -69
t69 -40.5t93.5 -24.5t102.5 -28t94 -42.5t69 -75t26.5 -120.5q0 -118 -87 -197t-230 -79q-150 0 -240 80t-98 206z" />
    <glyph glyph-name="afii10103" unicode="&#x456;" horiz-adv-x="419" 
d="M133 0v922h154v-922h-154zM113 1182q0 43 27.5 70.5t68.5 27.5q43 0 70.5 -27.5t27.5 -70.5q0 -42 -27.5 -69.5t-70.5 -27.5q-41 0 -68.5 28t-27.5 69z" />
    <glyph glyph-name="afii10104" unicode="&#x457;" horiz-adv-x="440" 
d="M143 0v922h154v-922h-154zM61 1085q-38 0 -65 27.5t-27 65.5t27 65t65 27t65.5 -27t27.5 -65t-27.5 -65.5t-65.5 -27.5zM369 1085q-38 0 -65.5 27.5t-27.5 65.5t27.5 65t65.5 27t65 -27t27 -65t-27 -65.5t-65 -27.5z" />
    <glyph glyph-name="afii10105" unicode="&#x458;" horiz-adv-x="419" 
d="M-72 -317v133l15 -6q25 -5 37 -5q70 0 111.5 43.5t41.5 120.5v953h154v-953q0 -134 -79 -220.5t-188 -86.5q-42 0 -69 10q-9 2 -23 11zM113 1182q0 43 27.5 70.5t68.5 27.5q43 0 70.5 -27.5t27.5 -70.5q0 -42 -27.5 -69.5t-70.5 -27.5q-41 0 -68.5 28t-27.5 69z" />
    <glyph glyph-name="afii10106" unicode="&#x459;" horiz-adv-x="1402" 
d="M-10 0v133h20q149 0 164 164l51 625h584v-328h215q146 0 231.5 -82.5t85.5 -214.5t-85.5 -214.5t-231.5 -82.5h-369v788h-297l-30 -491q-10 -146 -84.5 -226.5t-192.5 -80.5q-15 0 -43 4zM809 143h215q68 0 116 46t48 108t-48 108t-116 46h-215v-308z" />
    <glyph glyph-name="afii10107" unicode="&#x45a;" horiz-adv-x="1474" 
d="M133 0v922h154v-328h430v328h153v-328h215q146 0 232 -82.5t86 -214.5t-86 -214.5t-232 -82.5h-368v451h-430v-451h-154zM870 143h215q68 0 116 46t48 108t-48 108t-116 46h-215v-308z" />
    <glyph glyph-name="afii10108" unicode="&#x45b;" horiz-adv-x="1054" 
d="M154 0v993h-154v133h154v164h153v-164h256v-133h-256v-276q26 33 68 61q94 62 198 62q149 0 254 -113t105 -287v-440h-154v440q0 113 -66 184.5t-159 71.5q-110 0 -178 -70t-68 -186v-440h-153z" />
    <glyph glyph-name="afii10109" unicode="&#x45c;" horiz-adv-x="849" 
d="M133 0v922h154v-441l348 441h174l-348 -430l399 -492h-184l-389 481v-481h-154zM410 1065l122 246h154l-174 -246h-102z" />
    <glyph glyph-name="uni045D" unicode="&#x45d;" 
d="M133 0v922h154v-686l471 686h153v-922h-153v686l-471 -686h-154zM492 1065l-175 246h154l123 -246h-102z" />
    <glyph glyph-name="afii10110" unicode="&#x45e;" horiz-adv-x="921" 
d="M174 -328v123q66 0 102 29t62 94l41 102l-359 902h164l277 -707l276 707h164l-399 -1004q-56 -140 -116 -198t-150 -58q-15 0 -43 4zM215 1290h123q8 -54 42 -88.5t81 -34.5t81 34.5t42 88.5h123q-18 -97 -84 -161t-162 -64t-162 64t-84 161z" />
    <glyph glyph-name="afii10193" unicode="&#x45f;" horiz-adv-x="1024" 
d="M133 0v922h154v-779h450v779h154v-922h-307v-225h-144v225h-307z" />
    <glyph glyph-name="afii10050" unicode="&#x490;" horiz-adv-x="931" 
d="M164 0v1290h594v256h153v-399h-583v-1147h-164z" />
    <glyph glyph-name="afii10098" unicode="&#x491;" horiz-adv-x="757" 
d="M133 0v922h461v215h143v-359h-450v-778h-154z" />
    <glyph glyph-name="uni0492" unicode="&#x492;" horiz-adv-x="993" 
d="M205 0v573h-164v144h164v573h747v-143h-583v-430h419v-144h-419v-573h-164z" />
    <glyph glyph-name="uni0493" unicode="&#x493;" horiz-adv-x="778" 
d="M143 0v358h-123v144h123v420h605v-144h-451v-276h348v-144h-348v-358h-154z" />
    <glyph glyph-name="uni0494" unicode="&#x494;" horiz-adv-x="1116" 
d="M164 0v1290h747v-143h-583v-451q42 45 75 66q99 67 222 67q180 0 299.5 -127t119.5 -333q0 -222 -120 -346.5t-330 -124.5v143q119 0 203 92t84 236q0 143 -79.5 230t-197.5 87q-116 0 -196 -80t-80 -196v-410h-164z" />
    <glyph glyph-name="uni0495" unicode="&#x495;" horiz-adv-x="931" 
d="M492 -369v144q112 0 178.5 78.5t66.5 228.5q0 134 -62 210.5t-153 76.5q-100 0 -167.5 -69.5t-67.5 -174.5v-125h-154v922h604v-144h-450v-368q36 36 63 51q88 51 193 51q144 0 246 -118t102 -312q0 -212 -109.5 -331.5t-289.5 -119.5z" />
    <glyph glyph-name="uni0496" unicode="&#x496;" horiz-adv-x="1546" 
d="M-10 0l502 655l-461 635h194l451 -635v635h164v-635l450 635h195l-461 -635l391 -512h121v-409h-154v266h-51l-491 655v-655h-164v655l-492 -655h-194z" />
    <glyph glyph-name="uni0497" unicode="&#x497;" horiz-adv-x="1259" 
d="M-10 0l368 492l-327 430h174l327 -441v441h154v-441l328 441h174l-328 -430l260 -349h129v-368h-143v225h-62l-358 481v-481h-154v481l-358 -481h-184z" />
    <glyph glyph-name="uni049A" unicode="&#x49a;" horiz-adv-x="1085" 
d="M164 0v1290h164v-635l501 635h195l-512 -635l432 -512h131v-409h-153v266h-52l-542 655v-655h-164z" />
    <glyph glyph-name="uni049B" unicode="&#x49b;" horiz-adv-x="890" 
d="M133 0v922h154v-441l348 441h174l-348 -430l282 -349h138v-368h-144v225h-61l-389 481v-481h-154z" />
    <glyph glyph-name="uni049C" unicode="&#x49c;" horiz-adv-x="1218" 
d="M164 0v1290h164v-573h61v184h143v-184h41l420 573h195l-471 -635l512 -655h-195l-450 573h-52v-184h-143v184h-61v-573h-164z" />
    <glyph glyph-name="uni049D" unicode="&#x49d;" horiz-adv-x="952" 
d="M133 0v922h154v-369h51v174h123v-174h10l266 369h174l-317 -430l369 -492h-185l-307 410h-10v-172h-123v172h-51v-410h-154z" />
    <glyph glyph-name="uni04A2" unicode="&#x4a2;" horiz-adv-x="1300" 
d="M164 0v1290h164v-563h624v563h164v-1147h144v-409h-154v266h-154v584h-624v-584h-164z" />
    <glyph glyph-name="uni04A3" unicode="&#x4a3;" horiz-adv-x="1075" 
d="M133 0v922h154v-379h471v379h153v-779h123v-368h-143v225h-133v399h-471v-399h-154z" />
    <glyph glyph-name="uni04AE" unicode="&#x4ae;" 
d="M440 0v502l-420 788h175l327 -614l328 614h174l-420 -788v-502h-164z" />
    <glyph glyph-name="uni04AF" unicode="&#x4af;" horiz-adv-x="921" 
d="M383 -328v348l-363 902h164l277 -707l276 707h164l-362 -902v-348h-156z" />
    <glyph glyph-name="uni04B0" unicode="&#x4b0;" 
d="M440 0v369h-266v143h260l-414 778h175l327 -614l328 614h174l-416 -778h262v-143h-266v-369h-164z" />
    <glyph glyph-name="uni04B1" unicode="&#x4b1;" horiz-adv-x="921" 
d="M174 -143v143h209v20l-363 902h164l277 -707l276 707h164l-362 -902v-20h209v-143h-209v-185h-156v185h-209z" />
    <glyph glyph-name="uni04B2" unicode="&#x4b2;" horiz-adv-x="1064" 
d="M20 0l420 655l-399 635h184l307 -491l308 491h184l-399 -635l327 -512h103v-409h-154v266h-51l-318 512l-317 -512h-195z" />
    <glyph glyph-name="uni04B3" unicode="&#x4b3;" horiz-adv-x="870" 
d="M0 0l328 471l-308 451h175l225 -338l225 338h174l-307 -451l227 -328h121v-368h-143v225h-51l-246 358l-246 -358h-174z" />
    <glyph glyph-name="uni04B6" unicode="&#x4b6;" horiz-adv-x="1226" 
d="M1034 -266v266h-153v481q-41 -25 -95 -47q-112 -45 -223 -45q-193 0 -306.5 115t-113.5 315v471h164v-471q0 -138 70.5 -212.5t195.5 -74.5q101 0 215 46q55 23 93 47v665h163v-1147h144v-409h-154z" />
    <glyph glyph-name="uni04B7" unicode="&#x4b7;" horiz-adv-x="1013" 
d="M829 -225v225h-133v338q-44 -23 -71 -31q-91 -31 -195 -31q-141 0 -229 92.5t-88 245.5v308h153v-308q0 -87 56.5 -140.5t148.5 -53.5q78 0 158 35q33 13 67 37v430h154v-779h123v-368h-144z" />
    <glyph glyph-name="uni04B8" unicode="&#x4b8;" horiz-adv-x="1208" 
d="M522 215v174q-177 12 -278 126t-101 304v471h164v-471q0 -122 57 -195t158 -87v190h144v-186q67 11 153 51q12 5 62 33v665h163v-1290h-163v481q-42 -23 -62 -32q-75 -35 -153 -52v-182h-144z" />
    <glyph glyph-name="uni04B9" unicode="&#x4b9;" horiz-adv-x="983" 
d="M420 102v174q-137 5 -222 96.5t-85 241.5v308h153v-308q0 -72 41 -122.5t113 -67.5v170h123v-168q54 10 110 39q26 15 43 27v430h154v-922h-154v338q-14 -10 -41 -21q-65 -24 -112 -32v-183h-123z" />
    <glyph glyph-name="uni04BA" unicode="&#x4ba;" horiz-adv-x="1198" 
d="M164 0v1290h164v-481q49 27 94 45q116 47 223 47q193 0 306.5 -115t113.5 -315v-471h-164v471q0 138 -70.5 212.5t-195.5 74.5q-103 0 -215 -47q-49 -20 -92 -45v-666h-164z" />
    <glyph glyph-name="uni04BB" unicode="&#x4bb;" 
d="M143 0v1290h154v-481q26 33 68 61q94 62 198 62q149 0 254 -113t105 -287v-532h-154v532q0 113 -66 184.5t-159 71.5q-110 0 -178 -70t-68 -186v-532h-154z" />
    <glyph glyph-name="uni04C1" unicode="&#x4c1;" horiz-adv-x="1515" 
d="M-10 0l502 655l-461 635h194l451 -635v635h164v-635l450 635h195l-461 -635l502 -655h-195l-491 655v-655h-164v655l-492 -655h-194zM502 1659h123q8 -55 44 -89t89 -34t89 34t44 89h123q-18 -103 -84 -164t-172 -61t-172 61t-84 164z" />
    <glyph glyph-name="uni04C2" unicode="&#x4c2;" horiz-adv-x="1218" 
d="M-10 0l368 492l-327 430h174l327 -441v441h154v-441l328 441h174l-328 -430l369 -492h-185l-358 481v-481h-154v481l-358 -481h-184zM369 1290h123q8 -54 41.5 -88.5t80.5 -34.5t81 34.5t42 88.5h123q-18 -97 -84 -161t-162 -64t-161.5 64t-83.5 161z" />
    <glyph glyph-name="uni04D2" unicode="&#x4d2;" horiz-adv-x="1126" 
d="M0 0l492 1290h143l491 -1290h-174l-123 317h-532l-123 -317h-174zM348 461h430l-215 563zM410 1454q-38 0 -65.5 27t-27.5 65t27.5 65t65.5 27t65 -27t27 -65t-27 -65t-65 -27zM717 1454q-38 0 -65 27t-27 65t27 65t65 27t65 -27t27 -65t-27 -65t-65 -27z" />
    <glyph glyph-name="uni04D3" unicode="&#x4d3;" horiz-adv-x="952" 
d="M717 0l-41 102q-28 -32 -70 -57q-83 -55 -207 -55q-136 0 -221.5 79t-85.5 197q0 69 27 120.5t91 92.5t181 62.5t285 21.5v51q0 71 -55.5 122.5t-139.5 51.5q-82 0 -123.5 -33.5t-60.5 -99.5h-164q18 121 109 199t239 78q151 0 249.5 -93t98.5 -225v-614h-112zM676 348
v72q-135 0 -222.5 -10.5t-131.5 -33.5t-60 -50.5t-16 -69.5q0 -49 43 -86t110 -37q118 0 197.5 67t79.5 148zM328 1085q-38 0 -65 27.5t-27 65.5t27 65t65 27t65 -27t27 -65t-27 -65.5t-65 -27.5zM635 1085q-38 0 -65 27.5t-27 65.5t27 65t65 27t65 -27t27 -65t-27 -65.5
t-65 -27.5z" />
    <glyph glyph-name="uni04D8" unicode="&#x4d8;" horiz-adv-x="1331" 
d="M74 686h1022q-4 93 -43.5 180.5t-100 150.5t-139.5 101.5t-158 38.5q-136 0 -227 -69.5t-141 -186.5h-174q28 83 75 153.5t113.5 126.5t157.5 87.5t196 31.5q117 0 228 -51t194 -137.5t133 -209t50 -257.5t-50 -257.5t-133 -209t-194 -137.5t-228 -51q-119 0 -225.5 48.5
t-185.5 133.5t-125.5 208t-46.5 265v29q0 10 2 12zM1085 543h-839q18 -170 134 -290t275 -120q158 0 277.5 118.5t152.5 291.5z" />
    <glyph glyph-name="uni04D9" unicode="&#x4d9;" horiz-adv-x="972" 
d="M82 532h655q-8 101 -87.5 178.5t-178.5 77.5q-40 0 -75.5 -11t-63.5 -32t-42 -34t-34 -35h-164q51 111 147 183.5t232 72.5q181 0 305.5 -133.5t124.5 -337.5q0 -203 -124 -337t-296 -134t-290.5 128.5t-118.5 332.5q0 31 4 59zM737 399h-501q17 -122 84.5 -194
t160.5 -72t166 75.5t90 190.5z" />
    <glyph glyph-name="uni04E0" unicode="&#x4e0;" 
d="M41 358h164q19 -99 97 -162t210 -63q134 0 215.5 71.5t81.5 174.5q0 112 -80.5 184t-216.5 72h-164v123l379 389h-625v143h820v-143l-359 -369q198 -23 304 -129t106 -270q0 -166 -125.5 -277.5t-335.5 -111.5q-207 0 -326 100t-145 268z" />
    <glyph glyph-name="uni04E1" unicode="&#x4e1;" horiz-adv-x="880" 
d="M20 0h154q8 -89 74 -147t172 -58q108 0 177 67.5t69 168.5t-69 168t-177 67h-164v123l348 389h-532v144h706v-144l-327 -368q158 -8 263 -111t105 -268q0 -163 -112 -271t-287 -108q-174 0 -283 98.5t-117 249.5z" />
    <glyph glyph-name="uni04E2" unicode="&#x4e2;" horiz-adv-x="1280" 
d="M164 0v1290h164v-983l645 983h143v-1290h-164v983l-645 -983h-143zM389 1423v123h492v-123h-492z" />
    <glyph glyph-name="uni04E3" unicode="&#x4e3;" 
d="M133 0v922h154v-686l471 686h153v-922h-153v686l-471 -686h-154zM266 1065v123h492v-123h-492z" />
    <glyph glyph-name="uni04E6" unicode="&#x4e6;" horiz-adv-x="1351" 
d="M676 1157q-84 0 -163.5 -39t-141 -105.5t-98.5 -163t-37 -204.5t37 -204.5t98.5 -163t141 -105.5t163.5 -39t163.5 39t141 105.5t98.5 163t37 204.5t-37 204.5t-98.5 163t-141 105.5t-163.5 39zM676 1300q117 0 227.5 -51t193.5 -137.5t133 -209t50 -257.5t-50 -257.5
t-133 -209t-193.5 -137.5t-227.5 -51t-227.5 51t-193.5 137.5t-133 209t-50 257.5t50 257.5t133 209t193.5 137.5t227.5 51zM522 1454q-38 0 -65 27t-27 65t27 65t65 27t65 -27t27 -65t-27 -65t-65 -27zM829 1454q-38 0 -65 27t-27 65t27 65t65 27t65.5 -27t27.5 -65
t-27.5 -65t-65.5 -27z" />
    <glyph glyph-name="uni04E7" unicode="&#x4e7;" horiz-adv-x="1003" 
d="M502 133q110 0 193 92.5t83 235.5t-83 235t-193 92q-112 0 -194.5 -92t-82.5 -235t83 -235.5t194 -92.5zM502 -10q-181 0 -305.5 133.5t-124.5 337.5t124.5 337.5t305.5 133.5t305.5 -133.5t124.5 -337.5t-124.5 -337.5t-305.5 -133.5zM348 1085q-38 0 -65 27.5t-27 65.5
t27 65t65 27t65 -27t27 -65t-27 -65.5t-65 -27.5zM655 1085q-38 0 -65 27.5t-27 65.5t27 65t65 27t65.5 -27t27.5 -65t-27.5 -65.5t-65.5 -27.5z" />
    <glyph glyph-name="uni04E8" unicode="&#x4e8;" horiz-adv-x="1351" 
d="M676 -10q-117 0 -227.5 51t-193.5 137.5t-133 209t-50 257.5t50 257.5t133 209t193.5 137.5t227.5 51t227.5 -51t193.5 -137.5t133 -209t50 -257.5t-50 -257.5t-133 -209t-193.5 -137.5t-227.5 -51zM1110 573h-870q29 -195 154 -317.5t282 -122.5t283.5 123t150.5 317z
M240 717h870q-24 194 -150.5 317t-283.5 123t-282 -122.5t-154 -317.5z" />
    <glyph glyph-name="uni04E9" unicode="&#x4e9;" horiz-adv-x="1003" 
d="M502 -10q-181 0 -305.5 133.5t-124.5 337.5t124.5 337.5t305.5 133.5t305.5 -133.5t124.5 -337.5t-124.5 -337.5t-305.5 -133.5zM229 522h543q-20 118 -96 192t-174 74q-99 0 -177.5 -74.5t-95.5 -191.5zM772 389h-541q20 -114 97.5 -185t173.5 -71q95 0 171 70.5
t99 185.5z" />
    <glyph glyph-name="uni04EE" unicode="&#x4ee;" 
d="M154 0v133l20 -6q28 -4 51 -4q113 0 174 143l41 92l-420 932h185l327 -737l318 737h174l-451 -1024q-67 -151 -138 -218.5t-169 -67.5q-38 0 -76 10q-17 2 -36 10zM276 1423v123h492v-123h-492z" />
    <glyph glyph-name="uni04EF" unicode="&#x4ef;" horiz-adv-x="921" 
d="M174 -328v123q66 0 102 29t62 94l41 102l-359 902h164l277 -707l276 707h164l-399 -1004q-56 -140 -116 -198t-150 -58q-15 0 -43 4zM215 1065v123h492v-123h-492z" />
    <glyph glyph-name="uni04F0" unicode="&#x4f0;" 
d="M154 0v133l20 -6q28 -4 51 -4q113 0 174 143l41 92l-420 932h185l327 -737l318 737h174l-451 -1024q-67 -151 -138 -218.5t-169 -67.5q-38 0 -76 10q-17 2 -36 10zM369 1454q-38 0 -65.5 27t-27.5 65t27.5 65t65.5 27t65 -27t27 -65t-27 -65t-65 -27zM676 1454
q-38 0 -65 27t-27 65t27 65t65 27t65 -27t27 -65t-27 -65t-65 -27z" />
    <glyph glyph-name="uni04F1" unicode="&#x4f1;" horiz-adv-x="921" 
d="M174 -328v123q66 0 102 29t62 94l41 102l-359 902h164l277 -707l276 707h164l-399 -1004q-56 -140 -116 -198t-150 -58q-15 0 -43 4zM307 1085q-38 0 -65 27.5t-27 65.5t27 65t65 27t65 -27t27 -65t-27 -65.5t-65 -27.5zM614 1085q-38 0 -65 27.5t-27 65.5t27 65t65 27
t65.5 -27t27.5 -65t-27.5 -65.5t-65.5 -27.5z" />
    <glyph glyph-name="Wgrave" unicode="&#x1e80;" horiz-adv-x="1617" 
d="M420 0l-400 1290h175l286 -932l277 932h102l277 -932l286 932h174l-399 -1290h-113l-276 932l-277 -932h-112zM758 1434l-174 245h153l123 -245h-102z" />
    <glyph glyph-name="wgrave" unicode="&#x1e81;" horiz-adv-x="1310" 
d="M328 0l-308 922h164l215 -656l205 656h103l204 -656l215 656h164l-307 -922h-123l-205 655l-204 -655h-123zM604 1065l-174 246h154l123 -246h-103z" />
    <glyph glyph-name="Wacute" unicode="&#x1e82;" horiz-adv-x="1617" 
d="M420 0l-400 1290h175l286 -932l277 932h102l277 -932l286 932h174l-399 -1290h-113l-276 932l-277 -932h-112zM758 1434l123 245h153l-174 -245h-102z" />
    <glyph glyph-name="wacute" unicode="&#x1e83;" horiz-adv-x="1310" 
d="M328 0l-308 922h164l215 -656l205 656h103l204 -656l215 656h164l-307 -922h-123l-205 655l-204 -655h-123zM604 1065l123 246h154l-174 -246h-103z" />
    <glyph glyph-name="Wdieresis" unicode="&#x1e84;" horiz-adv-x="1617" 
d="M420 0l-400 1290h175l286 -932l277 932h102l277 -932l286 932h174l-399 -1290h-113l-276 932l-277 -932h-112zM655 1454q-38 0 -65 27t-27 65t27 65t65 27t65.5 -27t27.5 -65t-27.5 -65t-65.5 -27zM963 1454q-38 0 -65.5 27t-27.5 65t27.5 65t65.5 27t65 -27t27 -65
t-27 -65t-65 -27z" />
    <glyph glyph-name="wdieresis" unicode="&#x1e85;" horiz-adv-x="1310" 
d="M328 0l-308 922h164l215 -656l205 656h103l204 -656l215 656h164l-307 -922h-123l-205 655l-204 -655h-123zM502 1085q-38 0 -65 27.5t-27 65.5t27 65t65 27t65 -27t27 -65t-27 -65.5t-65 -27.5zM809 1085q-38 0 -65 27.5t-27 65.5t27 65t65 27t65 -27t27 -65t-27 -65.5
t-65 -27.5z" />
    <glyph glyph-name="uni1E9E" unicode="&#x1e9e;" horiz-adv-x="1187" 
d="M143 0v922q0 147 112.5 257.5t266.5 110.5h512v-123l-256 -409q89 -15 164 -64q164 -110 164 -315q0 -161 -109 -270t-270 -109h-113v143h113q94 0 154.5 64.5t60.5 171.5t-60.5 171t-154.5 64h-113v144l240 389h-332q-86 0 -150.5 -67t-64.5 -158v-922h-164z" />
    <glyph glyph-name="uni1EA0" unicode="&#x1ea0;" horiz-adv-x="1126" 
d="M0 0l492 1290h143l491 -1290h-174l-123 317h-532l-123 -317h-174zM348 461h430l-215 563zM471 -231q0 43 27.5 70.5t68.5 27.5q43 0 71 -27.5t28 -70.5q0 -41 -28 -69t-71 -28q-41 0 -68.5 28t-27.5 69z" />
    <glyph glyph-name="uni1EA1" unicode="&#x1ea1;" horiz-adv-x="952" 
d="M717 0l-41 102q-28 -32 -70 -57q-83 -55 -207 -55q-136 0 -221.5 79t-85.5 197q0 69 27 120.5t91 92.5t181 62.5t285 21.5v51q0 71 -55.5 122.5t-139.5 51.5q-82 0 -123.5 -33.5t-60.5 -99.5h-164q18 121 109 199t239 78q151 0 249.5 -93t98.5 -225v-614h-112zM676 348
v72q-135 0 -222.5 -10.5t-131.5 -33.5t-60 -50.5t-16 -69.5q0 -49 43 -86t110 -37q118 0 197.5 67t79.5 148zM379 -231q0 43 27.5 70.5t68.5 27.5q43 0 70.5 -27.5t27.5 -70.5q0 -41 -27.5 -69t-70.5 -28q-41 0 -68.5 28t-27.5 69z" />
    <glyph glyph-name="uni1EA2" unicode="&#x1ea2;" horiz-adv-x="1126" 
d="M0 0l492 1290h143l491 -1290h-174l-123 317h-532l-123 -317h-174zM348 461h430l-215 563zM625 1413h-93q17 20 25 39q27 44 27 84q0 47 -28 74.5t-75 27.5q-13 0 -37 -6l-14 -4v72l29 10q30 10 73 10q68 0 111 -40.5t43 -102.5q0 -52 -31 -121q-18 -28 -30 -43z" />
    <glyph glyph-name="uni1EA3" unicode="&#x1ea3;" horiz-adv-x="952" 
d="M717 0l-41 102q-28 -32 -70 -57q-83 -55 -207 -55q-136 0 -221.5 79t-85.5 197q0 69 27 120.5t91 92.5t181 62.5t285 21.5v51q0 71 -55.5 122.5t-139.5 51.5q-82 0 -123.5 -33.5t-60.5 -99.5h-164q18 121 109 199t239 78q151 0 249.5 -93t98.5 -225v-614h-112zM676 348
v72q-135 0 -222.5 -10.5t-131.5 -33.5t-60 -50.5t-16 -69.5q0 -49 43 -86t110 -37q118 0 197.5 67t79.5 148zM532 1044h-92q17 20 25 39q27 44 27 84q0 47 -28 75t-75 28q-13 0 -37 -6l-14 -4v71l29 10q33 11 73 11q68 0 111 -41t43 -103q0 -52 -31 -121q-15 -23 -31 -43z
" />
    <glyph glyph-name="uni1EA4" unicode="&#x1ea4;" horiz-adv-x="1126" 
d="M0 0l492 1290h143l491 -1290h-174l-123 317h-532l-123 -317h-174zM348 461h430l-215 563zM328 1434l164 245h143l164 -245h-154l-82 143l-82 -143h-153zM748 1577l102 215h154l-154 -215h-102z" />
    <glyph glyph-name="uni1EA5" unicode="&#x1ea5;" horiz-adv-x="952" 
d="M717 0l-41 102q-28 -32 -70 -57q-83 -55 -207 -55q-136 0 -221.5 79t-85.5 197q0 69 27 120.5t91 92.5t181 62.5t285 21.5v51q0 71 -55.5 122.5t-139.5 51.5q-82 0 -123.5 -33.5t-60.5 -99.5h-164q18 121 109 199t239 78q151 0 249.5 -93t98.5 -225v-614h-112zM676 348
v72q-135 0 -222.5 -10.5t-131.5 -33.5t-60 -50.5t-16 -69.5q0 -49 43 -86t110 -37q118 0 197.5 67t79.5 148zM256 1065l164 246h143l164 -246h-154l-81 143l-82 -143h-154zM676 1208l102 215h154l-154 -215h-102z" />
    <glyph glyph-name="uni1EA6" unicode="&#x1ea6;" horiz-adv-x="1126" 
d="M0 0l492 1290h143l491 -1290h-174l-123 317h-532l-123 -317h-174zM348 461h430l-215 563zM328 1434l164 245h143l164 -245h-154l-82 143l-82 -143h-153zM819 1577l-153 215h153l103 -215h-103z" />
    <glyph glyph-name="uni1EA7" unicode="&#x1ea7;" horiz-adv-x="952" 
d="M717 0l-41 102q-28 -32 -70 -57q-83 -55 -207 -55q-136 0 -221.5 79t-85.5 197q0 69 27 120.5t91 92.5t181 62.5t285 21.5v51q0 71 -55.5 122.5t-139.5 51.5q-82 0 -123.5 -33.5t-60.5 -99.5h-164q18 121 109 199t239 78q151 0 249.5 -93t98.5 -225v-614h-112zM676 348
v72q-135 0 -222.5 -10.5t-131.5 -33.5t-60 -50.5t-16 -69.5q0 -49 43 -86t110 -37q118 0 197.5 67t79.5 148zM256 1065l164 246h143l164 -246h-154l-81 143l-82 -143h-154zM748 1208l-154 215h154l102 -215h-102z" />
    <glyph glyph-name="uni1EA8" unicode="&#x1ea8;" horiz-adv-x="1126" 
d="M0 0l492 1290h143l491 -1290h-174l-123 317h-532l-123 -317h-174zM348 461h430l-215 563zM328 1434l164 245h143l164 -245h-154l-82 143l-82 -143h-153zM860 1567h-92q18 18 25 32q26 43 26 80q0 93 -92 93q-9 0 -37 -7l-14 -4v72l22 10q23 10 70 10q68 0 111 -40.5
t43 -102.5q0 -47 -31 -102z" />
    <glyph glyph-name="uni1EA9" unicode="&#x1ea9;" horiz-adv-x="952" 
d="M717 0l-41 102q-28 -32 -70 -57q-83 -55 -207 -55q-136 0 -221.5 79t-85.5 197q0 69 27 120.5t91 92.5t181 62.5t285 21.5v51q0 71 -55.5 122.5t-139.5 51.5q-82 0 -123.5 -33.5t-60.5 -99.5h-164q18 121 109 199t239 78q151 0 249.5 -93t98.5 -225v-614h-112zM676 348
v72q-135 0 -222.5 -10.5t-131.5 -33.5t-60 -50.5t-16 -69.5q0 -49 43 -86t110 -37q118 0 197.5 67t79.5 148zM256 1065l164 246h143l164 -246h-154l-81 143l-82 -143h-154zM788 1198h-92q17 17 25 33q27 44 27 80q0 92 -93 92q-13 0 -37 -6l-14 -4v71l23 11q23 10 69 10
q68 0 111 -41t43 -103q0 -47 -31 -102z" />
    <glyph glyph-name="uni1EAA" unicode="&#x1eaa;" horiz-adv-x="1126" 
d="M0 0l492 1290h143l491 -1290h-174l-123 317h-532l-123 -317h-174zM348 461h430l-215 563zM328 1434l164 225h143l164 -225h-154l-82 122l-82 -122h-153zM399 1720h-92q0 89 45 142t109 53q44 0 79.5 -23t65.5 -46t60 -23q25 0 43 22.5t18 59.5h92q0 -89 -44.5 -142
t-108.5 -53q-44 0 -79.5 23t-65.5 46t-60 23q-25 0 -43.5 -22.5t-18.5 -59.5z" />
    <glyph glyph-name="uni1EAB" unicode="&#x1eab;" horiz-adv-x="952" 
d="M717 0l-41 102q-28 -32 -70 -57q-83 -55 -207 -55q-136 0 -221.5 79t-85.5 197q0 69 27 120.5t91 92.5t181 62.5t285 21.5v51q0 71 -55.5 122.5t-139.5 51.5q-82 0 -123.5 -33.5t-60.5 -99.5h-164q18 121 109 199t239 78q151 0 249.5 -93t98.5 -225v-614h-112zM676 348
v72q-135 0 -222.5 -10.5t-131.5 -33.5t-60 -50.5t-16 -69.5q0 -49 43 -86t110 -37q118 0 197.5 67t79.5 148zM256 1065l164 225h143l164 -225h-154l-81 123l-82 -123h-154zM328 1352h-92q0 89 44.5 141.5t108.5 52.5q44 0 79.5 -23t65.5 -46t60 -23q25 0 43 22.5t18 59.5h93
q0 -89 -45 -142t-109 -53q-35 0 -65.5 14.5t-48.5 32t-42.5 32t-48.5 14.5q-25 0 -43 -22.5t-18 -59.5z" />
    <glyph glyph-name="uni1EAC" unicode="&#x1eac;" horiz-adv-x="1126" 
d="M307 1434l185 245h143l184 -245h-153l-103 143l-102 -143h-154zM0 0l492 1290h143l491 -1290h-174l-123 317h-532l-123 -317h-174zM348 461h430l-215 563zM471 -231q0 43 27.5 70.5t68.5 27.5q43 0 71 -27.5t28 -70.5q0 -41 -28 -69t-71 -28q-41 0 -68.5 28t-27.5 69z
" />
    <glyph glyph-name="uni1EAD" unicode="&#x1ead;" horiz-adv-x="952" 
d="M236 1065l184 246h143l185 -246h-154l-102 143l-103 -143h-153zM717 0l-41 102q-28 -32 -70 -57q-83 -55 -207 -55q-136 0 -221.5 79t-85.5 197q0 69 27 120.5t91 92.5t181 62.5t285 21.5v51q0 71 -55.5 122.5t-139.5 51.5q-82 0 -123.5 -33.5t-60.5 -99.5h-164
q18 121 109 199t239 78q151 0 249.5 -93t98.5 -225v-614h-112zM676 348v72q-135 0 -222.5 -10.5t-131.5 -33.5t-60 -50.5t-16 -69.5q0 -49 43 -86t110 -37q118 0 197.5 67t79.5 148zM379 -231q0 43 27.5 70.5t68.5 27.5q43 0 70.5 -27.5t27.5 -70.5q0 -41 -27.5 -69
t-70.5 -28q-41 0 -68.5 28t-27.5 69z" />
    <glyph glyph-name="uni1EAE" unicode="&#x1eae;" horiz-adv-x="1126" 
d="M0 0l492 1290h143l491 -1290h-174l-123 317h-532l-123 -317h-174zM348 461h430l-215 563zM317 1659h123q8 -54 42 -88.5t81 -34.5t81 34.5t42 88.5h123q-18 -97 -84 -161t-162 -64t-162 64t-84 161zM502 1628l123 215h153l-174 -215h-102z" />
    <glyph glyph-name="uni1EAF" unicode="&#x1eaf;" horiz-adv-x="952" 
d="M717 0l-41 102q-28 -32 -70 -57q-83 -55 -207 -55q-136 0 -221.5 79t-85.5 197q0 69 27 120.5t91 92.5t181 62.5t285 21.5v51q0 71 -55.5 122.5t-139.5 51.5q-82 0 -123.5 -33.5t-60.5 -99.5h-164q18 121 109 199t239 78q151 0 249.5 -93t98.5 -225v-614h-112zM676 348
v72q-135 0 -222.5 -10.5t-131.5 -33.5t-60 -50.5t-16 -69.5q0 -49 43 -86t110 -37q118 0 197.5 67t79.5 148zM246 1290h123q8 -54 42 -88.5t81 -34.5t80.5 34.5t41.5 88.5h123q-18 -97 -83.5 -161t-161.5 -64t-162 64t-84 161zM430 1260l123 215h154l-175 -215h-102z" />
    <glyph glyph-name="uni1EB0" unicode="&#x1eb0;" horiz-adv-x="1126" 
d="M0 0l492 1290h143l491 -1290h-174l-123 317h-532l-123 -317h-174zM348 461h430l-215 563zM317 1659h123q8 -54 42 -88.5t81 -34.5t81 34.5t42 88.5h123q-18 -97 -84 -161t-162 -64t-162 64t-84 161zM522 1628l-174 215h154l123 -215h-103z" />
    <glyph glyph-name="uni1EB1" unicode="&#x1eb1;" horiz-adv-x="952" 
d="M717 0l-41 102q-28 -32 -70 -57q-83 -55 -207 -55q-136 0 -221.5 79t-85.5 197q0 69 27 120.5t91 92.5t181 62.5t285 21.5v51q0 71 -55.5 122.5t-139.5 51.5q-82 0 -123.5 -33.5t-60.5 -99.5h-164q18 121 109 199t239 78q151 0 249.5 -93t98.5 -225v-614h-112zM676 348
v72q-135 0 -222.5 -10.5t-131.5 -33.5t-60 -50.5t-16 -69.5q0 -49 43 -86t110 -37q118 0 197.5 67t79.5 148zM246 1290h123q8 -54 42 -88.5t81 -34.5t80.5 34.5t41.5 88.5h123q-18 -97 -83.5 -161t-161.5 -64t-162 64t-84 161zM451 1260l-175 215h154l123 -215h-102z" />
    <glyph glyph-name="uni1EB2" unicode="&#x1eb2;" horiz-adv-x="1126" 
d="M0 0l492 1290h143l491 -1290h-174l-123 317h-532l-123 -317h-174zM348 461h430l-215 563zM317 1659h123q8 -54 42 -88.5t81 -34.5t81 34.5t42 88.5h123q-18 -97 -84 -161t-162 -64t-162 64t-84 161zM604 1628h-92q17 17 25 33q26 43 26 80q0 92 -92 92q-13 0 -37 -6
l-14 -4v71l22 11q23 10 70 10q68 0 111 -40.5t43 -102.5q0 -48 -31 -103z" />
    <glyph glyph-name="uni1EB3" unicode="&#x1eb3;" horiz-adv-x="952" 
d="M717 0l-41 102q-28 -32 -70 -57q-83 -55 -207 -55q-136 0 -221.5 79t-85.5 197q0 69 27 120.5t91 92.5t181 62.5t285 21.5v51q0 71 -55.5 122.5t-139.5 51.5q-82 0 -123.5 -33.5t-60.5 -99.5h-164q18 121 109 199t239 78q151 0 249.5 -93t98.5 -225v-614h-112zM676 348
v72q-135 0 -222.5 -10.5t-131.5 -33.5t-60 -50.5t-16 -69.5q0 -49 43 -86t110 -37q118 0 197.5 67t79.5 148zM246 1290h123q8 -54 42 -88.5t81 -34.5t80.5 34.5t41.5 88.5h123q-18 -97 -83.5 -161t-161.5 -64t-162 64t-84 161zM532 1260h-92q18 18 25 32q27 44 27 80
q0 92 -93 92q-13 0 -37 -6l-14 -4v72l23 10q23 10 69 10q68 0 111 -40.5t43 -102.5q0 -48 -31 -103z" />
    <glyph glyph-name="uni1EB4" unicode="&#x1eb4;" horiz-adv-x="1126" 
d="M0 0l492 1290h143l491 -1290h-174l-123 317h-532l-123 -317h-174zM348 461h430l-215 563zM389 1720h-92q0 89 45 142t109 53q35 0 65 -14.5t48 -31.5t42.5 -31.5t48.5 -14.5q25 0 43.5 22.5t18.5 59.5h92q0 -89 -45 -142t-109 -53q-35 0 -65 14.5t-48 31.5t-42.5 31.5
t-48.5 14.5q-25 0 -43.5 -22.5t-18.5 -59.5zM317 1659h123q8 -54 42 -88.5t81 -34.5t81 34.5t42 88.5h123q-18 -97 -84 -161t-162 -64t-162 64t-84 161z" />
    <glyph glyph-name="uni1EB5" unicode="&#x1eb5;" horiz-adv-x="952" 
d="M717 0l-41 102q-28 -32 -70 -57q-83 -55 -207 -55q-136 0 -221.5 79t-85.5 197q0 69 27 120.5t91 92.5t181 62.5t285 21.5v51q0 71 -55.5 122.5t-139.5 51.5q-82 0 -123.5 -33.5t-60.5 -99.5h-164q18 121 109 199t239 78q151 0 249.5 -93t98.5 -225v-614h-112zM676 348
v72q-135 0 -222.5 -10.5t-131.5 -33.5t-60 -50.5t-16 -69.5q0 -49 43 -86t110 -37q118 0 197.5 67t79.5 148zM317 1352h-92q0 89 45 141.5t109 52.5q44 0 79.5 -23t65.5 -46t60 -23q25 0 43 22.5t18 59.5h92q0 -89 -44.5 -142t-108.5 -53q-35 0 -65.5 14.5t-48.5 32
t-42.5 32t-48.5 14.5q-25 0 -43.5 -22.5t-18.5 -59.5zM246 1290h123q8 -54 42 -88.5t81 -34.5t80.5 34.5t41.5 88.5h123q-18 -97 -83.5 -161t-161.5 -64t-162 64t-84 161z" />
    <glyph glyph-name="uni1EB6" unicode="&#x1eb6;" horiz-adv-x="1126" 
d="M317 1659h123q8 -54 42 -88.5t81 -34.5t81 34.5t42 88.5h123q-18 -97 -84 -161t-162 -64t-162 64t-84 161zM0 0l492 1290h143l491 -1290h-174l-123 317h-532l-123 -317h-174zM348 461h430l-215 563zM471 -231q0 43 27.5 70.5t68.5 27.5q43 0 71 -27.5t28 -70.5
q0 -41 -28 -69t-71 -28q-41 0 -68.5 28t-27.5 69z" />
    <glyph glyph-name="uni1EB7" unicode="&#x1eb7;" horiz-adv-x="952" 
d="M246 1290h123q8 -54 42 -88.5t81 -34.5t80.5 34.5t41.5 88.5h123q-18 -97 -83.5 -161t-161.5 -64t-162 64t-84 161zM717 0l-41 102q-28 -32 -70 -57q-83 -55 -207 -55q-136 0 -221.5 79t-85.5 197q0 69 27 120.5t91 92.5t181 62.5t285 21.5v51q0 71 -55.5 122.5
t-139.5 51.5q-82 0 -123.5 -33.5t-60.5 -99.5h-164q18 121 109 199t239 78q151 0 249.5 -93t98.5 -225v-614h-112zM676 348v72q-135 0 -222.5 -10.5t-131.5 -33.5t-60 -50.5t-16 -69.5q0 -49 43 -86t110 -37q118 0 197.5 67t79.5 148zM379 -231q0 43 27.5 70.5t68.5 27.5
q43 0 70.5 -27.5t27.5 -70.5q0 -41 -27.5 -69t-70.5 -28q-41 0 -68.5 28t-27.5 69z" />
    <glyph glyph-name="uni1EB8" unicode="&#x1eb8;" horiz-adv-x="1105" 
d="M164 0v1290h819v-143h-655v-410h604v-143h-604v-451h676v-143h-840zM492 -231q0 43 27.5 70.5t68.5 27.5q43 0 70.5 -27.5t27.5 -70.5q0 -41 -28 -69t-70 -28q-41 0 -68.5 28t-27.5 69z" />
    <glyph glyph-name="uni1EB9" unicode="&#x1eb9;" horiz-adv-x="993" 
d="M737 246h164q-51 -112 -148.5 -184t-240.5 -72q-187 0 -313.5 133t-126.5 338q0 101 36 189.5t95.5 149.5t137.5 96.5t161 35.5q84 0 160.5 -33t134 -92t91.5 -146.5t34 -189.5q0 -10 -7 -59l-4 -23h-675q8 -102 88.5 -179t187.5 -77q81 0 137.5 34.5t87.5 78.5zM236 522
h532q-17 116 -92 191t-174 75t-174 -75t-92 -191zM410 -231q0 43 27.5 70.5t68.5 27.5q43 0 70.5 -27.5t27.5 -70.5q0 -41 -28 -69t-70 -28q-41 0 -68.5 28t-27.5 69z" />
    <glyph glyph-name="uni1EBA" unicode="&#x1eba;" horiz-adv-x="1105" 
d="M164 0v1290h819v-143h-655v-410h604v-143h-604v-451h676v-143h-840zM625 1413h-93q17 20 25 39q27 44 27 84q0 47 -28 74.5t-75 27.5q-13 0 -37 -6l-14 -4v72l29 10q30 10 73 10q68 0 111 -40.5t43 -102.5q0 -52 -31 -121q-18 -28 -30 -43z" />
    <glyph glyph-name="uni1EBB" unicode="&#x1ebb;" horiz-adv-x="993" 
d="M737 246h164q-51 -112 -148.5 -184t-240.5 -72q-187 0 -313.5 133t-126.5 338q0 101 36 189.5t95.5 149.5t137.5 96.5t161 35.5q84 0 160.5 -33t134 -92t91.5 -146.5t34 -189.5q0 -10 -7 -59l-4 -23h-675q8 -102 88.5 -179t187.5 -77q81 0 137.5 34.5t87.5 78.5zM236 522
h532q-17 116 -92 191t-174 75t-174 -75t-92 -191zM563 1044h-92q17 20 25 39q26 43 26 84q0 47 -27.5 75t-74.5 28q-13 0 -37 -6l-14 -4v71l28 10q33 11 74 11q68 0 111 -41t43 -103q0 -52 -31 -121q-14 -23 -31 -43z" />
    <glyph glyph-name="uni1EBC" unicode="&#x1ebc;" horiz-adv-x="1105" 
d="M164 0v1290h819v-143h-655v-410h604v-143h-604v-451h676v-143h-840zM389 1423h-92q0 112 50.5 174t123.5 62q42 0 77 -21t55 -45.5t45 -45.5t48 -21q33 0 57.5 32.5t24.5 90.5h92q0 -112 -50.5 -174t-123.5 -62q-42 0 -77.5 21t-55 45.5t-44.5 45.5t-48 21
q-33 0 -57.5 -32.5t-24.5 -90.5z" />
    <glyph glyph-name="uni1EBD" unicode="&#x1ebd;" horiz-adv-x="993" 
d="M737 246h164q-51 -112 -148.5 -184t-240.5 -72q-187 0 -313.5 133t-126.5 338q0 101 36 189.5t95.5 149.5t137.5 96.5t161 35.5q84 0 160.5 -33t134 -92t91.5 -146.5t34 -189.5q0 -10 -7 -59l-4 -23h-675q8 -102 88.5 -179t187.5 -77q81 0 137.5 34.5t87.5 78.5zM236 522
h532q-17 116 -92 191t-174 75t-174 -75t-92 -191zM307 1055h-92q0 112 50.5 173.5t123.5 61.5q42 0 77 -21t55 -45.5t45 -45.5t48 -21q33 0 57.5 32.5t24.5 90.5h92q0 -112 -50.5 -174t-123.5 -62q-42 0 -77.5 21t-55 46t-44.5 46t-48 21q-33 0 -57.5 -32.5t-24.5 -90.5z
" />
    <glyph glyph-name="uni1EBE" unicode="&#x1ebe;" horiz-adv-x="1105" 
d="M164 0v1290h819v-143h-655v-410h604v-143h-604v-451h676v-143h-840zM348 1434l164 245h143l164 -245h-153l-82 143l-82 -143h-154zM768 1577l102 215h154l-154 -215h-102z" />
    <glyph glyph-name="uni1EBF" unicode="&#x1ebf;" horiz-adv-x="993" 
d="M737 246h164q-51 -112 -148.5 -184t-240.5 -72q-187 0 -313.5 133t-126.5 338q0 101 36 189.5t95.5 149.5t137.5 96.5t161 35.5q84 0 160.5 -33t134 -92t91.5 -146.5t34 -189.5q0 -10 -7 -59l-4 -23h-675q8 -102 88.5 -179t187.5 -77q81 0 137.5 34.5t87.5 78.5zM236 522
h532q-17 116 -92 191t-174 75t-174 -75t-92 -191zM266 1065l164 246h143l164 -246h-153l-82 143l-82 -143h-154zM686 1208l102 215h154l-154 -215h-102z" />
    <glyph glyph-name="uni1EC0" unicode="&#x1ec0;" horiz-adv-x="1105" 
d="M164 0v1290h819v-143h-655v-410h604v-143h-604v-451h676v-143h-840zM348 1434l164 245h143l164 -245h-153l-82 143l-82 -143h-154zM840 1577l-154 215h154l102 -215h-102z" />
    <glyph glyph-name="uni1EC1" unicode="&#x1ec1;" horiz-adv-x="993" 
d="M737 246h164q-51 -112 -148.5 -184t-240.5 -72q-187 0 -313.5 133t-126.5 338q0 101 36 189.5t95.5 149.5t137.5 96.5t161 35.5q84 0 160.5 -33t134 -92t91.5 -146.5t34 -189.5q0 -10 -7 -59l-4 -23h-675q8 -102 88.5 -179t187.5 -77q81 0 137.5 34.5t87.5 78.5zM236 522
h532q-17 116 -92 191t-174 75t-174 -75t-92 -191zM266 1065l164 246h143l164 -246h-153l-82 143l-82 -143h-154zM758 1208l-154 215h154l102 -215h-102z" />
    <glyph glyph-name="uni1EC2" unicode="&#x1ec2;" horiz-adv-x="1105" 
d="M164 0v1290h819v-143h-655v-410h604v-143h-604v-451h676v-143h-840zM348 1434l164 245h143l164 -245h-153l-82 143l-82 -143h-154zM881 1567h-93q18 18 25 32q27 44 27 80q0 93 -92 93q-9 0 -37 -7l-15 -4v72l23 10q23 10 69 10q68 0 111 -40.5t43 -102.5q0 -47 -31 -102
z" />
    <glyph glyph-name="uni1EC3" unicode="&#x1ec3;" horiz-adv-x="993" 
d="M737 246h164q-51 -112 -148.5 -184t-240.5 -72q-187 0 -313.5 133t-126.5 338q0 101 36 189.5t95.5 149.5t137.5 96.5t161 35.5q84 0 160.5 -33t134 -92t91.5 -146.5t34 -189.5q0 -10 -7 -59l-4 -23h-675q8 -102 88.5 -179t187.5 -77q81 0 137.5 34.5t87.5 78.5zM236 522
h532q-17 116 -92 191t-174 75t-174 -75t-92 -191zM266 1065l164 246h143l164 -246h-153l-82 143l-82 -143h-154zM799 1198h-92q15 15 24 33q27 44 27 80q0 92 -92 92q-13 0 -37 -6l-15 -4v71l23 11q23 10 70 10q68 0 110.5 -41t42.5 -103q0 -47 -31 -102z" />
    <glyph glyph-name="uni1EC4" unicode="&#x1ec4;" horiz-adv-x="1105" 
d="M164 0v1290h819v-143h-655v-410h604v-143h-604v-451h676v-143h-840zM348 1434l164 225h143l164 -225h-153l-82 122l-82 -122h-154zM420 1720h-92q0 89 44.5 142t108.5 53q44 0 79.5 -23t65.5 -46t60 -23q25 0 43.5 22.5t18.5 59.5h92q0 -89 -45 -142t-109 -53
q-44 0 -79.5 23t-65.5 46t-60 23q-25 0 -43 -22.5t-18 -59.5z" />
    <glyph glyph-name="uni1EC5" unicode="&#x1ec5;" horiz-adv-x="993" 
d="M737 246h164q-51 -112 -148.5 -184t-240.5 -72q-187 0 -313.5 133t-126.5 338q0 101 36 189.5t95.5 149.5t137.5 96.5t161 35.5q84 0 160.5 -33t134 -92t91.5 -146.5t34 -189.5q0 -10 -7 -59l-4 -23h-675q8 -102 88.5 -179t187.5 -77q81 0 137.5 34.5t87.5 78.5zM236 522
h532q-17 116 -92 191t-174 75t-174 -75t-92 -191zM266 1065l164 225h143l164 -225h-153l-82 123l-82 -123h-154zM338 1352h-92q0 89 44.5 141.5t108.5 52.5q44 0 79.5 -23t65.5 -46t60 -23q25 0 43.5 22.5t18.5 59.5h92q0 -89 -45 -142t-109 -53q-35 0 -65.5 14.5t-48.5 32
t-42.5 32t-48.5 14.5q-25 0 -43 -22.5t-18 -59.5z" />
    <glyph glyph-name="uni1EC6" unicode="&#x1ec6;" horiz-adv-x="1105" 
d="M317 1434l185 245h143l184 -245h-153l-103 143l-102 -143h-154zM164 0v1290h819v-143h-655v-410h604v-143h-604v-451h676v-143h-840zM492 -231q0 43 27.5 70.5t68.5 27.5q43 0 70.5 -27.5t27.5 -70.5q0 -41 -28 -69t-70 -28q-41 0 -68.5 28t-27.5 69z" />
    <glyph glyph-name="uni1EC7" unicode="&#x1ec7;" horiz-adv-x="993" 
d="M246 1065l184 246h143l185 -246h-154l-102 143l-103 -143h-153zM737 246h164q-51 -112 -148.5 -184t-240.5 -72q-187 0 -313.5 133t-126.5 338q0 101 36 189.5t95.5 149.5t137.5 96.5t161 35.5q84 0 160.5 -33t134 -92t91.5 -146.5t34 -189.5q0 -10 -7 -59l-4 -23h-675
q8 -102 88.5 -179t187.5 -77q81 0 137.5 34.5t87.5 78.5zM236 522h532q-17 116 -92 191t-174 75t-174 -75t-92 -191zM410 -231q0 43 27.5 70.5t68.5 27.5q43 0 70.5 -27.5t27.5 -70.5q0 -41 -28 -69t-70 -28q-41 0 -68.5 28t-27.5 69z" />
    <glyph glyph-name="uni1EC8" unicode="&#x1ec8;" horiz-adv-x="491" 
d="M164 0v1290h164v-1290h-164zM297 1413h-92q15 18 24 39q27 44 27 84q0 47 -27.5 74.5t-74.5 27.5q-13 0 -37 -6l-15 -4v72l29 10q30 10 74 10q68 0 110.5 -40.5t42.5 -102.5q0 -55 -30 -121q-14 -23 -31 -43z" />
    <glyph glyph-name="uni1EC9" unicode="&#x1ec9;" horiz-adv-x="419" 
d="M133 0v922h154v-922h-154zM256 1044h-92q15 18 24 39q27 44 27 84q0 47 -27.5 75t-74.5 28q-13 0 -37 -6l-15 -4v71l29 10q33 11 74 11q68 0 110.5 -41t42.5 -103q0 -55 -30 -121q-14 -23 -31 -43z" />
    <glyph glyph-name="uni1ECA" unicode="&#x1eca;" horiz-adv-x="491" 
d="M164 0v1290h164v-1290h-164zM150 -231q0 43 27.5 70.5t68.5 27.5q43 0 70.5 -27.5t27.5 -70.5q0 -41 -28 -69t-70 -28q-41 0 -68.5 28t-27.5 69z" />
    <glyph glyph-name="uni1ECB" unicode="&#x1ecb;" horiz-adv-x="419" 
d="M133 0v922h154v-922h-154zM113 1182q0 43 27.5 70.5t68.5 27.5q43 0 70.5 -27.5t27.5 -70.5q0 -42 -27.5 -69.5t-70.5 -27.5q-41 0 -68.5 28t-27.5 69zM113 -231q0 43 27.5 70.5t68.5 27.5q43 0 70.5 -27.5t27.5 -70.5q0 -41 -27.5 -69t-70.5 -28q-41 0 -68.5 28
t-27.5 69z" />
    <glyph glyph-name="uni1ECC" unicode="&#x1ecc;" horiz-adv-x="1351" 
d="M676 1157q-84 0 -163.5 -39t-141 -105.5t-98.5 -163t-37 -204.5t37 -204.5t98.5 -163t141 -105.5t163.5 -39t163.5 39t141 105.5t98.5 163t37 204.5t-37 204.5t-98.5 163t-141 105.5t-163.5 39zM676 1300q117 0 227.5 -51t193.5 -137.5t133 -209t50 -257.5t-50 -257.5
t-133 -209t-193.5 -137.5t-227.5 -51t-227.5 51t-193.5 137.5t-133 209t-50 257.5t50 257.5t133 209t193.5 137.5t227.5 51zM584 -231q0 43 27.5 70.5t68.5 27.5q43 0 70.5 -27.5t27.5 -70.5q0 -41 -28 -69t-70 -28q-41 0 -68.5 28t-27.5 69z" />
    <glyph glyph-name="uni1ECD" unicode="&#x1ecd;" horiz-adv-x="1003" 
d="M502 133q110 0 193 92.5t83 235.5t-83 235t-193 92q-112 0 -194.5 -92t-82.5 -235t83 -235.5t194 -92.5zM502 -10q-181 0 -305.5 133.5t-124.5 337.5t124.5 337.5t305.5 133.5t305.5 -133.5t124.5 -337.5t-124.5 -337.5t-305.5 -133.5zM410 -231q0 43 27.5 70.5
t68.5 27.5q43 0 70.5 -27.5t27.5 -70.5q0 -41 -28 -69t-70 -28q-41 0 -68.5 28t-27.5 69z" />
    <glyph glyph-name="uni1ECE" unicode="&#x1ece;" horiz-adv-x="1351" 
d="M676 1157q-84 0 -163.5 -39t-141 -105.5t-98.5 -163t-37 -204.5t37 -204.5t98.5 -163t141 -105.5t163.5 -39t163.5 39t141 105.5t98.5 163t37 204.5t-37 204.5t-98.5 163t-141 105.5t-163.5 39zM676 1300q117 0 227.5 -51t193.5 -137.5t133 -209t50 -257.5t-50 -257.5
t-133 -209t-193.5 -137.5t-227.5 -51t-227.5 51t-193.5 137.5t-133 209t-50 257.5t50 257.5t133 209t193.5 137.5t227.5 51zM748 1413h-93q17 20 25 39q27 44 27 84q0 47 -28 74.5t-75 27.5q-13 0 -37 -6l-14 -4v72l29 10q30 10 73 10q68 0 111 -40.5t43 -102.5
q0 -52 -31 -121q-17 -28 -30 -43z" />
    <glyph glyph-name="uni1ECF" unicode="&#x1ecf;" horiz-adv-x="1003" 
d="M502 133q110 0 193 92.5t83 235.5t-83 235t-193 92q-112 0 -194.5 -92t-82.5 -235t83 -235.5t194 -92.5zM502 -10q-181 0 -305.5 133.5t-124.5 337.5t124.5 337.5t305.5 133.5t305.5 -133.5t124.5 -337.5t-124.5 -337.5t-305.5 -133.5zM553 1044h-92q15 18 24 39
q27 44 27 84q0 47 -27.5 75t-74.5 28q-13 0 -37 -6l-15 -4v71l29 10q33 11 74 11q68 0 110.5 -41t42.5 -103q0 -55 -30 -121q-14 -23 -31 -43z" />
    <glyph glyph-name="uni1ED0" unicode="&#x1ed0;" horiz-adv-x="1351" 
d="M676 1157q-84 0 -163.5 -39t-141 -105.5t-98.5 -163t-37 -204.5t37 -204.5t98.5 -163t141 -105.5t163.5 -39t163.5 39t141 105.5t98.5 163t37 204.5t-37 204.5t-98.5 163t-141 105.5t-163.5 39zM676 1300q117 0 227.5 -51t193.5 -137.5t133 -209t50 -257.5t-50 -257.5
t-133 -209t-193.5 -137.5t-227.5 -51t-227.5 51t-193.5 137.5t-133 209t-50 257.5t50 257.5t133 209t193.5 137.5t227.5 51zM440 1434l164 245h144l163 -245h-153l-82 143l-82 -143h-154zM860 1577l103 215h153l-153 -215h-103z" />
    <glyph glyph-name="uni1ED1" unicode="&#x1ed1;" horiz-adv-x="1003" 
d="M502 133q110 0 193 92.5t83 235.5t-83 235t-193 92q-112 0 -194.5 -92t-82.5 -235t83 -235.5t194 -92.5zM502 -10q-181 0 -305.5 133.5t-124.5 337.5t124.5 337.5t305.5 133.5t305.5 -133.5t124.5 -337.5t-124.5 -337.5t-305.5 -133.5zM266 1065l164 246h143l164 -246
h-153l-82 143l-82 -143h-154zM686 1208l102 215h154l-154 -215h-102z" />
    <glyph glyph-name="uni1ED2" unicode="&#x1ed2;" horiz-adv-x="1351" 
d="M676 1157q-84 0 -163.5 -39t-141 -105.5t-98.5 -163t-37 -204.5t37 -204.5t98.5 -163t141 -105.5t163.5 -39t163.5 39t141 105.5t98.5 163t37 204.5t-37 204.5t-98.5 163t-141 105.5t-163.5 39zM676 1300q117 0 227.5 -51t193.5 -137.5t133 -209t50 -257.5t-50 -257.5
t-133 -209t-193.5 -137.5t-227.5 -51t-227.5 51t-193.5 137.5t-133 209t-50 257.5t50 257.5t133 209t193.5 137.5t227.5 51zM440 1434l164 245h144l163 -245h-153l-82 143l-82 -143h-154zM932 1577l-154 215h154l102 -215h-102z" />
    <glyph glyph-name="uni1ED3" unicode="&#x1ed3;" horiz-adv-x="1003" 
d="M502 133q110 0 193 92.5t83 235.5t-83 235t-193 92q-112 0 -194.5 -92t-82.5 -235t83 -235.5t194 -92.5zM502 -10q-181 0 -305.5 133.5t-124.5 337.5t124.5 337.5t305.5 133.5t305.5 -133.5t124.5 -337.5t-124.5 -337.5t-305.5 -133.5zM266 1065l164 246h143l164 -246
h-153l-82 143l-82 -143h-154zM758 1208l-154 215h154l102 -215h-102z" />
    <glyph glyph-name="uni1ED4" unicode="&#x1ed4;" horiz-adv-x="1351" 
d="M676 1157q-84 0 -163.5 -39t-141 -105.5t-98.5 -163t-37 -204.5t37 -204.5t98.5 -163t141 -105.5t163.5 -39t163.5 39t141 105.5t98.5 163t37 204.5t-37 204.5t-98.5 163t-141 105.5t-163.5 39zM676 1300q117 0 227.5 -51t193.5 -137.5t133 -209t50 -257.5t-50 -257.5
t-133 -209t-193.5 -137.5t-227.5 -51t-227.5 51t-193.5 137.5t-133 209t-50 257.5t50 257.5t133 209t193.5 137.5t227.5 51zM440 1434l164 245h144l163 -245h-153l-82 143l-82 -143h-154zM973 1567h-92q16 16 24 32q27 44 27 80q0 93 -92 93q-9 0 -37 -7l-15 -4v72l23 10
q23 10 70 10q68 0 110.5 -40.5t42.5 -102.5q0 -48 -30 -102z" />
    <glyph glyph-name="uni1ED5" unicode="&#x1ed5;" horiz-adv-x="1003" 
d="M502 133q110 0 193 92.5t83 235.5t-83 235t-193 92q-112 0 -194.5 -92t-82.5 -235t83 -235.5t194 -92.5zM502 -10q-181 0 -305.5 133.5t-124.5 337.5t124.5 337.5t305.5 133.5t305.5 -133.5t124.5 -337.5t-124.5 -337.5t-305.5 -133.5zM266 1065l164 246h143l164 -246
h-153l-82 143l-82 -143h-154zM799 1198h-92q15 15 24 33q27 44 27 80q0 92 -92 92q-13 0 -37 -6l-15 -4v71l23 11q23 10 70 10q68 0 110.5 -41t42.5 -103q0 -47 -31 -102z" />
    <glyph glyph-name="uni1ED6" unicode="&#x1ed6;" horiz-adv-x="1351" 
d="M676 1157q-84 0 -163.5 -39t-141 -105.5t-98.5 -163t-37 -204.5t37 -204.5t98.5 -163t141 -105.5t163.5 -39t163.5 39t141 105.5t98.5 163t37 204.5t-37 204.5t-98.5 163t-141 105.5t-163.5 39zM676 1300q117 0 227.5 -51t193.5 -137.5t133 -209t50 -257.5t-50 -257.5
t-133 -209t-193.5 -137.5t-227.5 -51t-227.5 51t-193.5 137.5t-133 209t-50 257.5t50 257.5t133 209t193.5 137.5t227.5 51zM440 1434l164 225h144l163 -225h-153l-82 122l-82 -122h-154zM512 1720h-92q0 89 44.5 142t108.5 53q44 0 79.5 -23t65.5 -46t60 -23
q25 0 43.5 22.5t18.5 59.5h92q0 -89 -45 -142t-109 -53q-44 0 -79.5 23t-65.5 46t-60 23q-25 0 -43 -22.5t-18 -59.5z" />
    <glyph glyph-name="uni1ED7" unicode="&#x1ed7;" horiz-adv-x="1003" 
d="M502 133q110 0 193 92.5t83 235.5t-83 235t-193 92q-112 0 -194.5 -92t-82.5 -235t83 -235.5t194 -92.5zM502 -10q-181 0 -305.5 133.5t-124.5 337.5t124.5 337.5t305.5 133.5t305.5 -133.5t124.5 -337.5t-124.5 -337.5t-305.5 -133.5zM266 1065l164 225h143l164 -225
h-153l-82 123l-82 -123h-154zM338 1352h-92q0 89 44.5 141.5t108.5 52.5q44 0 79.5 -23t65.5 -46t60 -23q25 0 43.5 22.5t18.5 59.5h92q0 -89 -45 -142t-109 -53q-35 0 -65.5 14.5t-48.5 32t-42.5 32t-48.5 14.5q-25 0 -43 -22.5t-18 -59.5z" />
    <glyph glyph-name="uni1ED8" unicode="&#x1ed8;" horiz-adv-x="1351" 
d="M420 1434l184 245h144l184 -245h-154l-102 143l-103 -143h-153zM676 1157q-84 0 -163.5 -39t-141 -105.5t-98.5 -163t-37 -204.5t37 -204.5t98.5 -163t141 -105.5t163.5 -39t163.5 39t141 105.5t98.5 163t37 204.5t-37 204.5t-98.5 163t-141 105.5t-163.5 39zM676 1300
q117 0 227.5 -51t193.5 -137.5t133 -209t50 -257.5t-50 -257.5t-133 -209t-193.5 -137.5t-227.5 -51t-227.5 51t-193.5 137.5t-133 209t-50 257.5t50 257.5t133 209t193.5 137.5t227.5 51zM584 -231q0 43 27.5 70.5t68.5 27.5q43 0 70.5 -27.5t27.5 -70.5q0 -41 -28 -69
t-70 -28q-41 0 -68.5 28t-27.5 69z" />
    <glyph glyph-name="uni1ED9" unicode="&#x1ed9;" horiz-adv-x="1003" 
d="M246 1065l184 246h143l185 -246h-154l-102 143l-103 -143h-153zM502 133q110 0 193 92.5t83 235.5t-83 235t-193 92q-112 0 -194.5 -92t-82.5 -235t83 -235.5t194 -92.5zM502 -10q-181 0 -305.5 133.5t-124.5 337.5t124.5 337.5t305.5 133.5t305.5 -133.5t124.5 -337.5
t-124.5 -337.5t-305.5 -133.5zM410 -231q0 43 27.5 70.5t68.5 27.5q43 0 70.5 -27.5t27.5 -70.5q0 -41 -28 -69t-70 -28q-41 0 -68.5 28t-27.5 69z" />
    <glyph glyph-name="uni1EDA" unicode="&#x1eda;" horiz-adv-x="1372" 
d="M1044 1157h52q92 0 92 82q0 39 -17 88l-14 35h92q9 -12 21 -39q20 -50 20 -94q0 -70 -43.5 -112t-120.5 -42q43 -53 76 -114q78 -148 78 -316q0 -135 -50 -257.5t-133 -209t-193.5 -137.5t-227.5 -51t-227.5 51t-193.5 137.5t-133 209t-50 257.5t50 257.5t133 209
t193.5 137.5t227.5 51q140 0 268 -71q61 -38 100 -72zM676 133q84 0 163.5 39t141 105.5t98.5 163t37 204.5t-37 204.5t-98.5 163t-141 105.5t-163.5 39t-163.5 -39t-141 -105.5t-98.5 -163t-37 -204.5t37 -204.5t98.5 -163t141 -105.5t163.5 -39zM625 1434l123 245h153
l-174 -245h-102z" />
    <glyph glyph-name="uni1EDB" unicode="&#x1edb;" horiz-adv-x="1013" 
d="M799 809h30q93 0 93 82q0 39 -17 88l-14 35h92q9 -12 21 -39q20 -50 20 -94q0 -70 -43.5 -112t-120.5 -42q29 -55 35 -72q37 -97 37 -194q0 -204 -124.5 -337.5t-305.5 -133.5t-305.5 133.5t-124.5 337.5t124.5 337.5t305.5 133.5q115 0 217 -62q45 -26 80 -61zM502 133
q110 0 193 92.5t83 235.5t-83 235t-193 92q-112 0 -194.5 -92t-82.5 -235t83 -235.5t194 -92.5zM461 1065l123 246h153l-174 -246h-102z" />
    <glyph glyph-name="uni1EDC" unicode="&#x1edc;" horiz-adv-x="1372" 
d="M1044 1157h52q92 0 92 82q0 39 -17 88l-14 35h92q9 -12 21 -39q20 -50 20 -94q0 -70 -43.5 -112t-120.5 -42q43 -53 76 -114q78 -148 78 -316q0 -135 -50 -257.5t-133 -209t-193.5 -137.5t-227.5 -51t-227.5 51t-193.5 137.5t-133 209t-50 257.5t50 257.5t133 209
t193.5 137.5t227.5 51q140 0 268 -71q61 -38 100 -72zM676 133q84 0 163.5 39t141 105.5t98.5 163t37 204.5t-37 204.5t-98.5 163t-141 105.5t-163.5 39t-163.5 -39t-141 -105.5t-98.5 -163t-37 -204.5t37 -204.5t98.5 -163t141 -105.5t163.5 -39zM625 1434l-174 245h153
l123 -245h-102z" />
    <glyph glyph-name="uni1EDD" unicode="&#x1edd;" horiz-adv-x="1013" 
d="M799 809h30q93 0 93 82q0 39 -17 88l-14 35h92q9 -12 21 -39q20 -50 20 -94q0 -70 -43.5 -112t-120.5 -42q29 -55 35 -72q37 -97 37 -194q0 -204 -124.5 -337.5t-305.5 -133.5t-305.5 133.5t-124.5 337.5t124.5 337.5t305.5 133.5q115 0 217 -62q45 -26 80 -61zM502 133
q110 0 193 92.5t83 235.5t-83 235t-193 92q-112 0 -194.5 -92t-82.5 -235t83 -235.5t194 -92.5zM461 1065l-174 246h153l123 -246h-102z" />
    <glyph glyph-name="uni1EDE" unicode="&#x1ede;" horiz-adv-x="1372" 
d="M1044 1157h52q92 0 92 82q0 39 -17 88l-14 35h92q9 -12 21 -39q20 -50 20 -94q0 -70 -43.5 -112t-120.5 -42q43 -53 76 -114q78 -148 78 -316q0 -135 -50 -257.5t-133 -209t-193.5 -137.5t-227.5 -51t-227.5 51t-193.5 137.5t-133 209t-50 257.5t50 257.5t133 209
t193.5 137.5t227.5 51q140 0 268 -71q61 -38 100 -72zM676 133q84 0 163.5 39t141 105.5t98.5 163t37 204.5t-37 204.5t-98.5 163t-141 105.5t-163.5 39t-163.5 -39t-141 -105.5t-98.5 -163t-37 -204.5t37 -204.5t98.5 -163t141 -105.5t163.5 -39zM748 1413h-93q17 20 25 39
q27 44 27 84q0 47 -28 74.5t-75 27.5q-13 0 -37 -6l-14 -4v72l29 10q30 10 73 10q68 0 111 -40.5t43 -102.5q0 -52 -31 -121q-17 -28 -30 -43z" />
    <glyph glyph-name="uni1EDF" unicode="&#x1edf;" horiz-adv-x="1013" 
d="M799 809h30q93 0 93 82q0 39 -17 88l-14 35h92q9 -12 21 -39q20 -50 20 -94q0 -70 -43.5 -112t-120.5 -42q29 -55 35 -72q37 -97 37 -194q0 -204 -124.5 -337.5t-305.5 -133.5t-305.5 133.5t-124.5 337.5t124.5 337.5t305.5 133.5q115 0 217 -62q45 -26 80 -61zM502 133
q110 0 193 92.5t83 235.5t-83 235t-193 92q-112 0 -194.5 -92t-82.5 -235t83 -235.5t194 -92.5zM553 1044h-92q15 18 24 39q27 44 27 84q0 47 -27.5 75t-74.5 28q-13 0 -37 -6l-15 -4v71l29 10q33 11 74 11q68 0 110.5 -41t42.5 -103q0 -55 -30 -121q-14 -23 -31 -43z" />
    <glyph glyph-name="uni1EE0" unicode="&#x1ee0;" horiz-adv-x="1372" 
d="M1044 1157h52q92 0 92 82q0 39 -17 88l-14 35h92q9 -12 21 -39q20 -50 20 -94q0 -70 -43.5 -112t-120.5 -42q43 -53 76 -114q78 -148 78 -316q0 -135 -50 -257.5t-133 -209t-193.5 -137.5t-227.5 -51t-227.5 51t-193.5 137.5t-133 209t-50 257.5t50 257.5t133 209
t193.5 137.5t227.5 51q140 0 268 -71q61 -38 100 -72zM676 133q84 0 163.5 39t141 105.5t98.5 163t37 204.5t-37 204.5t-98.5 163t-141 105.5t-163.5 39t-163.5 -39t-141 -105.5t-98.5 -163t-37 -204.5t37 -204.5t98.5 -163t141 -105.5t163.5 -39zM481 1423h-92
q0 112 50.5 174t123.5 62q42 0 77 -21t55 -45.5t45 -45.5t48 -21q33 0 57.5 32.5t24.5 90.5h93q0 -112 -51 -174t-124 -62q-42 0 -77.5 21t-55 45.5t-44.5 45.5t-48 21q-33 0 -57.5 -32.5t-24.5 -90.5z" />
    <glyph glyph-name="uni1EE1" unicode="&#x1ee1;" horiz-adv-x="1013" 
d="M799 809h30q93 0 93 82q0 39 -17 88l-14 35h92q9 -12 21 -39q20 -50 20 -94q0 -70 -43.5 -112t-120.5 -42q29 -55 35 -72q37 -97 37 -194q0 -204 -124.5 -337.5t-305.5 -133.5t-305.5 133.5t-124.5 337.5t124.5 337.5t305.5 133.5q115 0 217 -62q45 -26 80 -61zM502 133
q110 0 193 92.5t83 235.5t-83 235t-193 92q-112 0 -194.5 -92t-82.5 -235t83 -235.5t194 -92.5zM307 1055h-92q0 112 50.5 173.5t123.5 61.5q42 0 77 -21t55 -45.5t45 -45.5t48 -21q33 0 57.5 32.5t24.5 90.5h92q0 -112 -50.5 -174t-123.5 -62q-42 0 -77.5 21t-55 46
t-44.5 46t-48 21q-33 0 -57.5 -32.5t-24.5 -90.5z" />
    <glyph glyph-name="uni1EE2" unicode="&#x1ee2;" horiz-adv-x="1372" 
d="M1044 1157h52q92 0 92 82q0 39 -17 88l-14 35h92q9 -12 21 -39q20 -50 20 -94q0 -70 -43.5 -112t-120.5 -42q43 -53 76 -114q78 -148 78 -316q0 -135 -50 -257.5t-133 -209t-193.5 -137.5t-227.5 -51t-227.5 51t-193.5 137.5t-133 209t-50 257.5t50 257.5t133 209
t193.5 137.5t227.5 51q140 0 268 -71q61 -38 100 -72zM676 133q84 0 163.5 39t141 105.5t98.5 163t37 204.5t-37 204.5t-98.5 163t-141 105.5t-163.5 39t-163.5 -39t-141 -105.5t-98.5 -163t-37 -204.5t37 -204.5t98.5 -163t141 -105.5t163.5 -39zM584 -231q0 43 27.5 70.5
t68.5 27.5q43 0 70.5 -27.5t27.5 -70.5q0 -41 -28 -69t-70 -28q-41 0 -68.5 28t-27.5 69z" />
    <glyph glyph-name="uni1EE3" unicode="&#x1ee3;" horiz-adv-x="1013" 
d="M799 809h30q93 0 93 82q0 39 -17 88l-14 35h92q9 -12 21 -39q20 -50 20 -94q0 -70 -43.5 -112t-120.5 -42q29 -55 35 -72q37 -97 37 -194q0 -204 -124.5 -337.5t-305.5 -133.5t-305.5 133.5t-124.5 337.5t124.5 337.5t305.5 133.5q115 0 217 -62q45 -26 80 -61zM502 133
q110 0 193 92.5t83 235.5t-83 235t-193 92q-112 0 -194.5 -92t-82.5 -235t83 -235.5t194 -92.5zM410 -231q0 43 27.5 70.5t68.5 27.5q43 0 70.5 -27.5t27.5 -70.5q0 -41 -28 -69t-70 -28q-41 0 -68.5 28t-27.5 69z" />
    <glyph glyph-name="uni1EE4" unicode="&#x1ee4;" horiz-adv-x="1228" 
d="M143 451v839h164v-839q0 -147 83.5 -232.5t223.5 -85.5t224 85.5t84 232.5v839h163v-839q0 -200 -132.5 -330.5t-338.5 -130.5t-338.5 130.5t-132.5 330.5zM522 -231q0 43 27.5 70.5t68.5 27.5q43 0 71 -27.5t28 -70.5q0 -41 -28 -69t-71 -28q-41 0 -68.5 28t-27.5 69z
" />
    <glyph glyph-name="uni1EE5" unicode="&#x1ee5;" 
d="M133 389v533h154v-533q0 -113 64.5 -184.5t160.5 -71.5q110 0 178 70t68 186v533h153v-922h-112l-41 102q-24 -31 -68 -57q-83 -55 -198 -55q-149 0 -254 112.5t-105 286.5zM430 -231q0 43 27.5 70.5t68.5 27.5q43 0 71 -27.5t28 -70.5q0 -41 -28 -69t-71 -28
q-41 0 -68.5 28t-27.5 69z" />
    <glyph glyph-name="uni1EE6" unicode="&#x1ee6;" horiz-adv-x="1228" 
d="M143 451v839h164v-839q0 -147 83.5 -232.5t223.5 -85.5t224 85.5t84 232.5v839h163v-839q0 -200 -132.5 -330.5t-338.5 -130.5t-338.5 130.5t-132.5 330.5zM676 1413h-92q15 18 24 39q27 44 27 84q0 47 -28 74.5t-75 27.5q-12 0 -36 -6l-15 -4v72l29 10q30 10 74 10
q68 0 110.5 -40.5t42.5 -102.5q0 -55 -30 -121q-15 -23 -31 -43z" />
    <glyph glyph-name="uni1EE7" unicode="&#x1ee7;" 
d="M133 389v533h154v-533q0 -113 64.5 -184.5t160.5 -71.5q110 0 178 70t68 186v533h153v-922h-112l-41 102q-24 -31 -68 -57q-83 -55 -198 -55q-149 0 -254 112.5t-105 286.5zM573 1044h-92q17 20 25 39q26 43 26 84q0 47 -27.5 75t-74.5 28q-13 0 -37 -6l-14 -4v71l29 10
q33 11 73 11q68 0 111 -41t43 -103q0 -52 -31 -121q-14 -23 -31 -43z" />
    <glyph glyph-name="uni1EE8" unicode="&#x1ee8;" horiz-adv-x="1290" 
d="M143 451v839h164v-839q0 -147 83.5 -232.5t223.5 -85.5t224 85.5t84 232.5v839h163v-133h31q92 0 92 82q0 42 -16 88l-14 35h92q7 -9 20 -39q21 -53 21 -94q0 -70 -43.5 -112t-120.5 -42q-15 0 -43 4l-19 6v-634q0 -200 -132.5 -330.5t-338.5 -130.5t-338.5 130.5
t-132.5 330.5zM543 1434l123 245h153l-174 -245h-102z" />
    <glyph glyph-name="uni1EE9" unicode="&#x1ee9;" horiz-adv-x="1095" 
d="M133 389v533h154v-533q0 -113 64.5 -184.5t160.5 -71.5q110 0 178 70t68 186v533h153v-113h31q92 0 92 82q0 42 -16 88l-14 35h92q7 -9 20 -39q21 -53 21 -94q0 -70 -43.5 -112t-120.5 -42q-15 0 -43 4l-19 6v-737h-112l-41 102q-24 -31 -68 -57q-83 -55 -198 -55
q-149 0 -254 112.5t-105 286.5zM461 1065l123 246h153l-174 -246h-102z" />
    <glyph glyph-name="uni1EEA" unicode="&#x1eea;" horiz-adv-x="1290" 
d="M143 451v839h164v-839q0 -147 83.5 -232.5t223.5 -85.5t224 85.5t84 232.5v839h163v-133h31q92 0 92 82q0 42 -16 88l-14 35h92q7 -9 20 -39q21 -53 21 -94q0 -70 -43.5 -112t-120.5 -42q-15 0 -43 4l-19 6v-634q0 -200 -132.5 -330.5t-338.5 -130.5t-338.5 130.5
t-132.5 330.5zM584 1434l-174 245h153l123 -245h-102z" />
    <glyph glyph-name="uni1EEB" unicode="&#x1eeb;" horiz-adv-x="1095" 
d="M133 389v533h154v-533q0 -113 64.5 -184.5t160.5 -71.5q110 0 178 70t68 186v533h153v-113h31q92 0 92 82q0 42 -16 88l-14 35h92q7 -9 20 -39q21 -53 21 -94q0 -70 -43.5 -112t-120.5 -42q-15 0 -43 4l-19 6v-737h-112l-41 102q-24 -31 -68 -57q-83 -55 -198 -55
q-149 0 -254 112.5t-105 286.5zM502 1065l-174 246h153l123 -246h-102z" />
    <glyph glyph-name="uni1EEC" unicode="&#x1eec;" horiz-adv-x="1290" 
d="M143 451v839h164v-839q0 -147 83.5 -232.5t223.5 -85.5t224 85.5t84 232.5v839h163v-133h31q92 0 92 82q0 42 -16 88l-14 35h92q7 -9 20 -39q21 -53 21 -94q0 -70 -43.5 -112t-120.5 -42q-15 0 -43 4l-19 6v-634q0 -200 -132.5 -330.5t-338.5 -130.5t-338.5 130.5
t-132.5 330.5zM676 1413h-92q15 18 24 39q27 44 27 84q0 47 -28 74.5t-75 27.5q-12 0 -36 -6l-15 -4v72l29 10q30 10 74 10q68 0 110.5 -40.5t42.5 -102.5q0 -55 -30 -121q-15 -23 -31 -43z" />
    <glyph glyph-name="uni1EED" unicode="&#x1eed;" horiz-adv-x="1095" 
d="M133 389v533h154v-533q0 -113 64.5 -184.5t160.5 -71.5q110 0 178 70t68 186v533h153v-113h31q92 0 92 82q0 42 -16 88l-14 35h92q7 -9 20 -39q21 -53 21 -94q0 -70 -43.5 -112t-120.5 -42q-15 0 -43 4l-19 6v-737h-112l-41 102q-24 -31 -68 -57q-83 -55 -198 -55
q-149 0 -254 112.5t-105 286.5zM573 1044h-92q17 20 25 39q26 43 26 84q0 47 -27.5 75t-74.5 28q-13 0 -37 -6l-14 -4v71l29 10q33 11 73 11q68 0 111 -41t43 -103q0 -52 -31 -121q-14 -23 -31 -43z" />
    <glyph glyph-name="uni1EEE" unicode="&#x1eee;" horiz-adv-x="1290" 
d="M143 451v839h164v-839q0 -147 83.5 -232.5t223.5 -85.5t224 85.5t84 232.5v839h163v-133h31q92 0 92 82q0 42 -16 88l-14 35h92q7 -9 20 -39q21 -53 21 -94q0 -70 -43.5 -112t-120.5 -42q-15 0 -43 4l-19 6v-634q0 -200 -132.5 -330.5t-338.5 -130.5t-338.5 130.5
t-132.5 330.5zM420 1423h-92q0 112 50.5 174t123.5 62q42 0 77 -21t55 -45.5t45 -45.5t48 -21q33 0 57.5 32.5t24.5 90.5h92q0 -112 -50.5 -174t-123.5 -62q-42 0 -77.5 21t-55 45.5t-44.5 45.5t-48 21q-33 0 -57.5 -32.5t-24.5 -90.5z" />
    <glyph glyph-name="uni1EEF" unicode="&#x1eef;" horiz-adv-x="1095" 
d="M133 389v533h154v-533q0 -113 64.5 -184.5t160.5 -71.5q110 0 178 70t68 186v533h153v-113h31q92 0 92 82q0 42 -16 88l-14 35h92q7 -9 20 -39q21 -53 21 -94q0 -70 -43.5 -112t-120.5 -42q-15 0 -43 4l-19 6v-737h-112l-41 102q-24 -31 -68 -57q-83 -55 -198 -55
q-149 0 -254 112.5t-105 286.5zM328 1055h-92q0 112 50.5 173.5t123.5 61.5q42 0 77 -21t55 -45.5t45 -45.5t48 -21q33 0 57.5 32.5t24.5 90.5h92q0 -112 -50.5 -174t-123.5 -62q-42 0 -77.5 21t-55 46t-44.5 46t-48 21q-33 0 -57.5 -32.5t-24.5 -90.5z" />
    <glyph glyph-name="uni1EF0" unicode="&#x1ef0;" horiz-adv-x="1290" 
d="M143 451v839h164v-839q0 -147 83.5 -232.5t223.5 -85.5t224 85.5t84 232.5v839h163v-133h31q92 0 92 82q0 42 -16 88l-14 35h92q7 -9 20 -39q21 -53 21 -94q0 -70 -43.5 -112t-120.5 -42q-15 0 -43 4l-19 6v-634q0 -200 -132.5 -330.5t-338.5 -130.5t-338.5 130.5
t-132.5 330.5zM522 -231q0 43 27.5 70.5t68.5 27.5q43 0 71 -27.5t28 -70.5q0 -41 -28 -69t-71 -28q-41 0 -68.5 28t-27.5 69z" />
    <glyph glyph-name="uni1EF1" unicode="&#x1ef1;" horiz-adv-x="1095" 
d="M133 389v533h154v-533q0 -113 64.5 -184.5t160.5 -71.5q110 0 178 70t68 186v533h153v-113h31q92 0 92 82q0 42 -16 88l-14 35h92q7 -9 20 -39q21 -53 21 -94q0 -70 -43.5 -112t-120.5 -42q-15 0 -43 4l-19 6v-737h-112l-41 102q-24 -31 -68 -57q-83 -55 -198 -55
q-149 0 -254 112.5t-105 286.5zM430 -231q0 43 27.5 70.5t68.5 27.5q43 0 71 -27.5t28 -70.5q0 -41 -28 -69t-71 -28q-41 0 -68.5 28t-27.5 69z" />
    <glyph glyph-name="uni1EF2" unicode="&#x1ef2;" 
d="M440 0v502l-420 788h175l327 -614l328 614h174l-420 -788v-502h-164zM481 1434l-174 245h154l123 -245h-103z" />
    <glyph glyph-name="uni1EF3" unicode="&#x1ef3;" horiz-adv-x="921" 
d="M174 -328v123q66 0 102 29t62 94l41 102l-359 902h164l277 -707l276 707h164l-399 -1004q-56 -140 -116 -198t-150 -58q-15 0 -43 4zM430 1065l-174 246h154l122 -246h-102z" />
    <glyph glyph-name="uni1EF4" unicode="&#x1ef4;" 
d="M440 0v502l-420 788h175l327 -614l328 614h174l-420 -788v-502h-164zM426 -231q0 43 27.5 70.5t68.5 27.5q43 0 71 -27.5t28 -70.5q0 -41 -28 -69t-71 -28q-41 0 -68.5 28t-27.5 69z" />
    <glyph glyph-name="uni1EF5" unicode="&#x1ef5;" horiz-adv-x="921" 
d="M174 -328v123q66 0 102 29t62 94l41 102l-359 902h164l277 -707l276 707h164l-399 -1004q-56 -140 -116 -198t-150 -58q-15 0 -43 4zM573 -231q0 43 27.5 70.5t69.5 27.5q43 0 70.5 -27.5t27.5 -70.5q0 -41 -28 -69t-70 -28q-41 0 -69 28t-28 69z" />
    <glyph glyph-name="uni1EF6" unicode="&#x1ef6;" 
d="M440 0v502l-420 788h175l327 -614l328 614h174l-420 -788v-502h-164zM584 1413h-92q15 18 24 39q27 44 27 84q0 47 -28 74.5t-75 27.5q-13 0 -37 -6l-14 -4v72l29 10q30 10 74 10q68 0 110.5 -40.5t42.5 -102.5q0 -52 -31 -121q-17 -28 -30 -43z" />
    <glyph glyph-name="uni1EF7" unicode="&#x1ef7;" horiz-adv-x="921" 
d="M174 -328v123q66 0 102 29t62 94l41 102l-359 902h164l277 -707l276 707h164l-399 -1004q-56 -140 -116 -198t-150 -58q-15 0 -43 4zM512 1044h-92q15 18 24 39q27 44 27 84q0 47 -27.5 75t-74.5 28q-13 0 -37 -6l-15 -4v71l29 10q33 11 74 11q68 0 110.5 -41t42.5 -103
q0 -55 -30 -121q-15 -23 -31 -43z" />
    <glyph glyph-name="uni1EF8" unicode="&#x1ef8;" 
d="M440 0v502l-420 788h175l327 -614l328 614h174l-420 -788v-502h-164zM328 1423h-92q0 112 50.5 174t123.5 62q42 0 77 -21t55 -45.5t45 -45.5t48 -21q33 0 57.5 32.5t24.5 90.5h92q0 -112 -50.5 -174t-123.5 -62q-42 0 -77.5 21t-55 45.5t-44.5 45.5t-48 21
q-33 0 -57.5 -32.5t-24.5 -90.5z" />
    <glyph glyph-name="uni1EF9" unicode="&#x1ef9;" horiz-adv-x="921" 
d="M174 -328v123q66 0 102 29t62 94l41 102l-359 902h164l277 -707l276 707h164l-399 -1004q-56 -140 -116 -198t-150 -58q-15 0 -43 4zM266 1055h-92q0 112 50.5 173.5t123.5 61.5q42 0 77 -21t55 -45.5t45 -45.5t48 -21q33 0 57.5 32.5t24.5 90.5h93q0 -112 -51 -174
t-124 -62q-42 0 -77.5 21t-55 46t-44.5 46t-48 21q-33 0 -57.5 -32.5t-24.5 -90.5z" />
    <glyph glyph-name="endash" unicode="&#x2013;" horiz-adv-x="952" 
d="M72 451v143h809v-143h-809z" />
    <glyph glyph-name="emdash" unicode="&#x2014;" horiz-adv-x="1454" 
d="M72 451v143h1310v-143h-1310z" />
    <glyph glyph-name="quoteleft" unicode="&#x2018;" horiz-adv-x="348" 
d="M236 1300l20 -30q-22 -22 -37 -43q-38 -57 -45 -111q47 0 74.5 -27.5t27.5 -74.5t-27.5 -75t-74.5 -28t-74.5 28t-27.5 75q0 123 82 217q43 46 82 69z" />
    <glyph glyph-name="quoteright" unicode="&#x2019;" horiz-adv-x="348" 
d="M113 911l-21 31q22 22 37 43q38 57 45 111q-47 0 -74.5 27.5t-27.5 74.5t27.5 74.5t74.5 27.5t74.5 -27.5t27.5 -74.5q0 -124 -81 -217q-45 -48 -82 -70z" />
    <glyph glyph-name="quotesinglbase" unicode="&#x201a;" horiz-adv-x="348" 
d="M113 -195l-21 31q22 22 37 43q38 57 45 111q-47 0 -74.5 27.5t-27.5 74.5t27.5 75t74.5 28t74.5 -28t27.5 -75q0 -124 -81 -217q-45 -48 -82 -70z" />
    <glyph glyph-name="quotedblleft" unicode="&#x201c;" horiz-adv-x="624" 
d="M236 1300l20 -30q-22 -22 -37 -43q-38 -57 -45 -111q47 0 74.5 -27.5t27.5 -74.5t-27.5 -75t-74.5 -28t-74.5 28t-27.5 75q0 123 82 217q43 46 82 69zM512 1300l20 -30q-18 -18 -36 -43q-38 -57 -45 -111q47 0 74.5 -27.5t27.5 -74.5t-27.5 -75t-74.5 -28t-75 28t-28 75
q0 123 82 217q43 46 82 69z" />
    <glyph glyph-name="quotedblright" unicode="&#x201d;" horiz-adv-x="624" 
d="M389 911l-20 31q22 22 37 43q38 57 45 111q-47 0 -75 27.5t-28 74.5t28 74.5t75 27.5t74.5 -27.5t27.5 -74.5q0 -123 -82 -217q-45 -48 -82 -70zM113 911l-21 31q22 22 37 43q38 57 45 111q-47 0 -74.5 27.5t-27.5 74.5t27.5 74.5t74.5 27.5t74.5 -27.5t27.5 -74.5
q0 -124 -81 -217q-45 -48 -82 -70z" />
    <glyph glyph-name="quotedblbase" unicode="&#x201e;" horiz-adv-x="634" 
d="M113 -195l-21 31q22 22 37 43q38 57 45 111q-47 0 -74.5 27.5t-27.5 74.5t27.5 75t74.5 28t74.5 -28t27.5 -75q0 -124 -81 -217q-45 -48 -82 -70zM399 -195l-20 31q22 22 37 43q38 57 45 111q-47 0 -75 27.5t-28 74.5t28 75t75 28t74.5 -28t27.5 -75q0 -123 -82 -217
q-45 -48 -82 -70z" />
    <glyph glyph-name="dagger" unicode="&#x2020;" horiz-adv-x="696" 
d="M287 369v542h-215v123h215v256h123v-256h215v-123h-215v-542h-123z" />
    <glyph glyph-name="daggerdbl" unicode="&#x2021;" horiz-adv-x="696" 
d="M287 369v245h-215v123h215v185h-215v122h215v246h123v-246h215v-122h-215v-185h215v-123h-215v-245h-123z" />
    <glyph glyph-name="bullet" unicode="&#x2022;" horiz-adv-x="778" 
d="M205 553q0 78 53 131t131 53t131 -53t53 -131t-53 -131t-131 -53t-131 53t-53 131z" />
    <glyph glyph-name="ellipsis" unicode="&#x2026;" horiz-adv-x="1126" 
d="M72 92q0 47 27.5 75t74.5 28t74.5 -28t27.5 -75t-27.5 -74.5t-74.5 -27.5t-74.5 27.5t-27.5 74.5zM461 92q0 47 27.5 75t74.5 28t75 -28t28 -75t-28 -74.5t-75 -27.5t-74.5 27.5t-27.5 74.5zM850 92q0 47 27.5 75t74.5 28t75 -28t28 -75t-28 -74.5t-75 -27.5t-74.5 27.5
t-27.5 74.5z" />
    <glyph glyph-name="perthousand" unicode="&#x2030;" horiz-adv-x="1820" 
d="M164 0l788 1290h113l-789 -1290h-112zM317 870q62 0 108 48t46 116t-46 116t-108 48t-107.5 -48t-45.5 -116t45.5 -116t107.5 -48zM61 1034q0 107 74.5 181.5t181.5 74.5t181.5 -74.5t74.5 -181.5t-74.5 -181.5t-181.5 -74.5t-181.5 74.5t-74.5 181.5zM901 92
q62 0 108 48t46 116t-46 116t-108 48t-107.5 -48t-45.5 -116t45.5 -116t107.5 -48zM645 256q0 107 74.5 181.5t181.5 74.5t181.5 -74.5t74.5 -181.5t-74.5 -181.5t-181.5 -74.5t-181.5 74.5t-74.5 181.5zM1503 92q62 0 108 48t46 116t-46 116t-108 48t-107.5 -48t-45.5 -116
t45.5 -116t107.5 -48zM1247 256q0 107 74.5 181.5t181.5 74.5t181.5 -74.5t74.5 -181.5t-74.5 -181.5t-181.5 -74.5t-181.5 74.5t-74.5 181.5z" />
    <glyph glyph-name="guilsinglleft" unicode="&#x2039;" horiz-adv-x="522" 
d="M297 133l-225 328l225 327h154l-226 -327l226 -328h-154z" />
    <glyph glyph-name="guilsinglright" unicode="&#x203a;" horiz-adv-x="522" 
d="M72 133l225 328l-225 327h153l226 -327l-226 -328h-153z" />
    <glyph glyph-name="uni203D" unicode="&#x203d;" horiz-adv-x="880" 
d="M348 328l-31 788q-81 -65 -81 -215v-20h-164v20q0 189 103 294t276 105q154 0 256 -96t102 -243q0 -66 -16.5 -119.5t-42.5 -89t-57.5 -66.5t-63.5 -62.5t-58 -67t-42.5 -89t-16.5 -119.5v-20h-164zM512 1147l-20 -451q10 10 35.5 34t37 36t30 36t27.5 44.5t16 50.5t7 64
q0 71 -35.5 120t-97.5 66zM328 92q0 47 27.5 75t74.5 28t74.5 -28t27.5 -75t-27.5 -74.5t-74.5 -27.5t-74.5 27.5t-27.5 74.5z" />
    <glyph glyph-name="fraction" unicode="&#x2044;" horiz-adv-x="245" 
d="M-338 0l789 1290h133l-789 -1290h-133z" />
    <glyph glyph-name="zerosuperior" unicode="&#x2070;" horiz-adv-x="614" 
d="M307 973q58 0 95.5 51t37.5 154t-37.5 153.5t-95.5 50.5t-95.5 -50.5t-37.5 -153.5t37.5 -154t95.5 -51zM307 870q-104 0 -175 83.5t-71 224.5t71 224t175 83t175 -83t71 -224t-71 -224.5t-175 -83.5z" />
    <glyph glyph-name="foursuperior" unicode="&#x2074;" horiz-adv-x="512" 
d="M10 993v82l246 400h123v-379h72v-103h-72v-112h-113v112h-256zM133 1096h133v215z" />
    <glyph glyph-name="fivesuperior" unicode="&#x2075;" horiz-adv-x="552" 
d="M61 1044h113q17 -71 102 -71q47 0 75 27.5t28 74.5q0 53 -27.5 83t-75.5 30q-82 0 -102 -62h-92l41 349h328v-103h-234l-12 -112l22 10q23 10 70 10q87 0 141 -56.5t54 -148.5q0 -85 -62 -145t-154 -60q-89 0 -143 46.5t-72 127.5z" />
    <glyph glyph-name="sixsuperior" unicode="&#x2076;" horiz-adv-x="532" 
d="M154 1280l133 195h123l-134 -195q92 0 154 -60t62 -145t-62 -145t-154 -60q-91 0 -153 60t-62 145q0 66 45 142q23 38 48 63zM276 973q47 0 75 27.5t28 74.5t-28 75t-75 28t-74.5 -28t-27.5 -75t27.5 -74.5t74.5 -27.5z" />
    <glyph glyph-name="sevensuperior" unicode="&#x2077;" horiz-adv-x="471" 
d="M113 881l235 491h-266v103h389v-72l-246 -522h-112z" />
    <glyph glyph-name="eightsuperior" unicode="&#x2078;" horiz-adv-x="532" 
d="M266 870q-91 0 -148 53t-57 132q0 69 41 110q16 19 41 33q-17 8 -30 25q-31 35 -31 88q0 70 53.5 122t130.5 52t131 -52t54 -122q0 -48 -31 -88q-16 -16 -31 -25q25 -14 41 -33q41 -41 41 -110q0 -79 -57 -132t-148 -53zM184 1311q0 -31 22.5 -51.5t59.5 -20.5t59.5 20.5
t22.5 51.5t-22 51t-60 20t-60 -20t-22 -51zM266 1147q-38 0 -65 -26t-27 -62q0 -35 27 -60.5t65 -25.5t65 25.5t27 60.5q0 36 -27 62t-65 26z" />
    <glyph glyph-name="ninesuperior" unicode="&#x2079;" horiz-adv-x="532" 
d="M123 881l133 194q-91 0 -153 60t-62 145t62 145t153 60t153 -60t62 -145q0 -61 -47 -141q-26 -42 -45 -64l-133 -194h-123zM256 1178q47 0 74.5 27.5t27.5 74.5t-27.5 74.5t-74.5 27.5t-74.5 -27.5t-27.5 -74.5t27.5 -74.5t74.5 -27.5z" />
    <glyph glyph-name="zeroinferior" unicode="&#x2080;" horiz-adv-x="614" 
d="M307 -92q58 0 95.5 51t37.5 154t-37.5 153.5t-95.5 50.5t-95.5 -50.5t-37.5 -153.5t37.5 -154t95.5 -51zM307 -195q-104 0 -175 83.5t-71 224.5t71 224t175 83t175 -83t71 -224t-71 -224.5t-175 -83.5z" />
    <glyph glyph-name="oneinferior" unicode="&#x2081;" horiz-adv-x="419" 
d="M174 -184v460l-82 -51l-51 82l164 103h82v-594h-113z" />
    <glyph glyph-name="twoinferior" unicode="&#x2082;" horiz-adv-x="522" 
d="M61 -184v82l226 235q61 61 61 103q0 81 -92 81t-92 -92h-103q0 86 54.5 140.5t140.5 54.5q91 0 148 -52.5t57 -131.5q0 -29 -12.5 -56t-22 -38t-27.5 -29l-180 -195h242v-102h-400z" />
    <glyph glyph-name="threeinferior" unicode="&#x2083;" horiz-adv-x="542" 
d="M61 0h103q0 -38 28 -65t74 -27q45 0 74 25t29 57q0 39 -28.5 65.5t-74.5 26.5h-53v92h53q37 0 59.5 20.5t22.5 51.5t-22 51t-60 20q-92 0 -92 -81h-102q0 79 54.5 131.5t139.5 52.5q84 0 139.5 -51.5t55.5 -122.5q0 -48 -31 -88q-16 -16 -31 -25q26 -11 41 -29
q41 -41 41 -114q0 -79 -57 -132t-148 -53q-99 0 -157 54t-58 141z" />
    <glyph glyph-name="fourinferior" unicode="&#x2084;" horiz-adv-x="512" 
d="M10 -72v82l246 400h123v-379h72v-103h-72v-112h-113v112h-256zM133 31h133v215z" />
    <glyph glyph-name="fiveinferior" unicode="&#x2085;" horiz-adv-x="552" 
d="M61 -20h113q18 -72 102 -72q47 0 75 27.5t28 74.5q0 53 -27.5 83t-75.5 30q-82 0 -102 -62h-92l41 349h328v-103h-234l-12 -112l22 10q23 10 70 10q87 0 141 -56.5t54 -148.5q0 -85 -62 -145t-154 -60q-89 0 -143 47t-72 128z" />
    <glyph glyph-name="sixinferior" unicode="&#x2086;" horiz-adv-x="532" 
d="M154 215l133 195h123l-134 -195q92 0 154 -60t62 -145t-62 -145t-154 -60q-91 0 -153 60t-62 145q0 66 45 142q23 38 48 63zM276 -92q47 0 75 27.5t28 74.5t-28 75t-75 28t-74.5 -28t-27.5 -75t27.5 -74.5t74.5 -27.5z" />
    <glyph glyph-name="seveninferior" unicode="&#x2087;" horiz-adv-x="471" 
d="M113 -184l235 491h-266v103h389v-72l-246 -522h-112z" />
    <glyph glyph-name="eightinferior" unicode="&#x2088;" horiz-adv-x="532" 
d="M266 -195q-91 0 -148 53t-57 132q0 69 41 110q16 19 41 33q-17 8 -30 25q-31 35 -31 88q0 70 53.5 122t130.5 52t131 -52t54 -122q0 -48 -31 -88q-16 -16 -31 -25q25 -14 41 -33q41 -41 41 -110q0 -79 -57 -132t-148 -53zM184 246q0 -31 22.5 -51.5t59.5 -20.5t59.5 20.5
t22.5 51.5t-22 51t-60 20t-60 -20t-22 -51zM266 82q-38 0 -65 -26t-27 -62q0 -35 27 -60.5t65 -25.5t65 25.5t27 60.5q0 36 -27 62t-65 26z" />
    <glyph glyph-name="nineinferior" unicode="&#x2089;" horiz-adv-x="532" 
d="M123 -184l133 194q-91 0 -153 60t-62 145t62 145t153 60t153 -60t62 -145q0 -61 -47 -141q-26 -42 -45 -64l-133 -194h-123zM256 113q47 0 74.5 27.5t27.5 74.5t-27.5 74.5t-74.5 27.5t-74.5 -27.5t-27.5 -74.5t27.5 -74.5t74.5 -27.5z" />
    <glyph glyph-name="uni20A9" unicode="&#x20a9;" horiz-adv-x="1638" 
d="M20 397v144h248l-30 114h-218v144h177l-136 491h175l126 -491h273l123 491h123l123 -491h270l129 491h174l-137 -491h178v-144h-217l-33 -114h250v-144h-289l-110 -397h-164l-101 397h-270l-100 -397h-164l-111 397h-289zM430 541h139l29 114h-199zM719 541h199l-29 114
h-141zM1067 541h139l31 114h-199zM784 799h68l-33 133zM502 266l33 131h-68zM1137 266l32 131h-65z" />
    <glyph glyph-name="uni20AB" unicode="&#x20ab;" horiz-adv-x="972" 
d="M696 236l-41 81q-16 -24 -49 -47q-68 -45 -166 -45q-148 0 -248 103t-100 256t100 255.5t248 102.5q82 0 162 -37q29 -15 53 -35v185h-215v112h215v123h133v-123h134v-112h-134v-819h-92zM451 348q91 0 158 69t67 167q0 97 -66.5 166t-158.5 69q-94 0 -160 -68.5
t-66 -166.5t66 -167t160 -69zM154 0v123h634v-123h-634z" />
    <glyph glyph-name="Euro" unicode="&#x20ac;" horiz-adv-x="1351" 
d="M41 420v133h154q-2 6 -2 25q-3 21 -3 57q0 30 3 51q0 15 2 21h-154v133h170q59 207 202.5 333.5t344.5 126.5q200 0 343 -124t189 -316h-174q-26 129 -121 213t-237 84q-135 0 -233 -86.5t-142 -230.5h385v-133h-410q-2 -6 -2 -21q-2 -14 -2 -51q0 -43 2 -57q0 -19 2 -25
h410v-133h-373q34 -122 132.5 -204.5t230.5 -82.5q142 0 237 84t121 213h174q-46 -192 -189 -316t-343 -124q-199 0 -342 121.5t-195 308.5h-180z" />
    <glyph glyph-name="uni20B4" unicode="&#x20b4;" horiz-adv-x="1116" 
d="M92 717v133h553q30 9 55 31q58 43 58 123q0 57 -57 105t-138 48q-88 0 -142.5 -44t-62.5 -109h-163q8 121 110 208.5t258 87.5t257.5 -88t101.5 -208q0 -68 -37 -119q-16 -22 -35 -35h174v-133h-932zM92 440v133h932v-133h-553q-32 -8 -57 -30q-56 -42 -56 -123
q0 -57 57 -105.5t138 -48.5q88 0 142.5 44.5t62.5 109.5h164q-8 -121 -110.5 -209t-258.5 -88t-257 88.5t-101 208.5q0 72 34 119q16 22 37 34h-174z" />
    <glyph glyph-name="uni20B8" unicode="&#x20b8;" horiz-adv-x="1024" 
d="M430 0v860h-379v144h922v-144h-379v-860h-164zM51 1147v143h922v-143h-922z" />
    <glyph glyph-name="uni20B9" unicode="&#x20b9;" horiz-adv-x="1034" 
d="M82 512v143h317q87 0 152 53t84 121h-553v144h553q-19 68 -84 121t-152 53h-317v143h881v-143h-232l31 -45q36 -69 51 -129h150v-144h-150q-26 -134 -130 -225.5t-253 -91.5h-92l635 -512h-236z" />
    </font>
</defs>
</svg>
